Unheilig – Gipfelstürmer (Limited Deluxe Edition)




Artist: Unheilig
Year: 2014
Genre: Rock
Notes: Discogs
Add. Notes: Limited Deluxe Edition
Cover incl.: Yes
Encoder: FLAC
Bitrate: ~1000 kBit/s (44.1 kHz/16 Bit/s)
Log & Cue incl.: Yes
Size: 782,77 MB
Password: “slam” (without ” “)


All Downloads/Hosters are compatible

Download 1
Turbobit.net
Rapidgator.net
KatFile.com
UploadRar.com
Download 2
Turbobit.net
Rapidgator.net
KatFile.com
UploadRar.com

Tracklist:

Gipfelstürmer
1-1 Der Berg (Intro) 4:48
1-2 Hinunter Bis Auf Eins 3:22
1-3 Zeit Zu Gehen 4:10
1-4 Die Weisheiten Des Lebens 3:26
1-5 Zwischen Licht Und Schatten 4:27
1-6 Glück Aus Das Leben 3:06
1-7 Wie In Guten Alten Zeiten 3:54
1-8 Alles Hat Seine Zeit 3:50
1-9 Echo 3:46
1-10 Mein Berg 4:21
1-11 Goldrausch 3:43
1-12 Held Für Einen Tag 4:03
1-13 Dem Himmel So Nah 3:40
1-14 Wie Sind Die Gipfelstürmer 3:46
1-15 Hand In Hand 3:59
1-16 Der Gipfel (Outro) 6:02
Demoversionen
2-1 Zeit Zu Gehen (Demo) 3:57
2-2 Zwischen Licht Und Schatten (Demo) 3:52
2-3 Held Für Einen Tag (Demo) 4:45
2-4 Echo (Demo) 3:36
2-5 Hand In Hand (Demo) 3:13
2-6 Dem Himmel So Nah (Demo) 3:32
2-7 Die Weisheiten Des Lebens (Demo) 3:24
2-8 Alles Hat Seine Zeit (Demo) 3:46
2-9 Hinunter Bis Auf Eins (Demo) 3:35
2-10 Mein Berg (Demo) 4:23

EAC-Log, CUE-Sheed & NFO:

Click to open spoiler
Exact Audio Copy V1.0 beta 3 from 29. August 2011

EAC extraction logfile from 17. December 2014, 16:15

Unheilig / Gipfelsturmer (Limited Deluxe Edition) CD 1

Used drive : HP DVD Writer 1170d Adapter: 0 ID: 0

Read mode : Secure
Utilize accurate stream : Yes
Defeat audio cache : Yes
Make use of C2 pointers : No

Read offset correction : 6
Overread into Lead-In and Lead-Out : No
Fill up missing offset samples with silence : Yes
Delete leading and trailing silent blocks : No
Null samples used in CRC calculations : Yes
Used interface : Native Win32 interface for Win NT & 2000

Used output format : User Defined Encoder
Selected bitrate : 768 kBit/s
Quality : High
Add ID3 tag : No
Command line compressor : C:\Program Files (x86)\Exact Audio Copy\FLAC\FLAC.EXE
Additional command line options : -V -8 -T “Date=%year%” -T “Genre=%genre%” -T”COMMENT=Ripped by Ungern666″ -8 -V %source%

TOC of the extracted CD

Track | Start | Length | Start sector | End sector
———————————————————
1 | 0:00.00 | 4:48.63 | 0 | 21662
2 | 4:48.63 | 3:24.10 | 21663 | 36972
3 | 8:12.73 | 4:13.00 | 36973 | 55947
4 | 12:25.73 | 3:28.31 | 55948 | 71578
5 | 15:54.29 | 4:30.24 | 71579 | 91852
6 | 20:24.53 | 3:09.56 | 91853 | 106083
7 | 23:34.34 | 3:56.56 | 106084 | 123839
8 | 27:31.15 | 3:52.30 | 123840 | 141269
9 | 31:23.45 | 3:48.10 | 141270 | 158379
10 | 35:11.55 | 4:23.74 | 158380 | 178178
11 | 39:35.54 | 3:45.52 | 178179 | 195105
12 | 43:21.31 | 4:06.06 | 195106 | 213561
13 | 47:27.37 | 3:42.24 | 213562 | 230235
14 | 51:09.61 | 3:49.50 | 230236 | 247460
15 | 54:59.36 | 4:02.07 | 247461 | 265617
16 | 59:01.43 | 6:03.04 | 265618 | 292846

Range status and errors

Selected range

Filename C:\EAC\Ungern666\Unheilig – Gipfelsturmer (Limited Deluxe Edition) CD 1.wav

Peak level 98.4 %
Extraction speed 6.1 X
Range quality 100.0 %
Test CRC 56F1A571
Copy CRC 56F1A571
Copy OK

No errors occurred

AccurateRip summary

Track 1 not present in database
Track 2 not present in database
Track 3 not present in database
Track 4 not present in database
Track 5 not present in database
Track 6 not present in database
Track 7 not present in database
Track 8 not present in database
Track 9 not present in database
Track 10 not present in database
Track 11 not present in database
Track 12 not present in database
Track 13 not present in database
Track 14 not present in database
Track 15 not present in database
Track 16 not present in database

None of the tracks are present in the AccurateRip database

End of status report

==== Log checksum 045DA8F4F369B62EBC4F095AFE3458F3CFA0704CBAEF5E750976B07C2D0B3C3A ====

—————————

Exact Audio Copy V1.0 beta 3 from 29. August 2011

EAC extraction logfile from 17. December 2014, 16:42

Unheilig / Gipfelsturmer (Limited Deluxe Edition) CD 2

Used drive : HP DVD Writer 1170d Adapter: 0 ID: 0

Read mode : Secure
Utilize accurate stream : Yes
Defeat audio cache : Yes
Make use of C2 pointers : No

Read offset correction : 6
Overread into Lead-In and Lead-Out : No
Fill up missing offset samples with silence : Yes
Delete leading and trailing silent blocks : No
Null samples used in CRC calculations : Yes
Used interface : Native Win32 interface for Win NT & 2000

Used output format : User Defined Encoder
Selected bitrate : 768 kBit/s
Quality : High
Add ID3 tag : No
Command line compressor : C:\Program Files (x86)\Exact Audio Copy\FLAC\FLAC.EXE
Additional command line options : -V -8 -T “Date=%year%” -T “Genre=%genre%” -T”COMMENT=Ripped by Ungern666″ -8 -V %source%

TOC of the extracted CD

Track | Start | Length | Start sector | End sector
———————————————————
1 | 0:00.00 | 4:00.23 | 0 | 18022
2 | 4:00.23 | 3:55.04 | 18023 | 35651
3 | 7:55.27 | 4:47.38 | 35652 | 57214
4 | 12:42.65 | 3:39.16 | 57215 | 73655
5 | 16:22.06 | 3:15.64 | 73656 | 88344
6 | 19:37.70 | 3:34.73 | 88345 | 104467
7 | 23:12.68 | 3:27.02 | 104468 | 119994
8 | 26:39.70 | 3:50.36 | 119995 | 137280
9 | 30:30.31 | 3:38.37 | 137281 | 153667
10 | 34:08.68 | 4:24.32 | 153668 | 173499

Range status and errors

Selected range

Filename C:\EAC\Ungern666\Unheilig – Gipfelsturmer (Limited Deluxe Edition) CD 2.wav

Peak level 99.1 %
Extraction speed 5.4 X
Range quality 100.0 %
Test CRC 0B91A00F
Copy CRC 0B91A00F
Copy OK

No errors occurred

AccurateRip summary

Track 1 not present in database
Track 2 not present in database
Track 3 not present in database
Track 4 not present in database
Track 5 not present in database
Track 6 not present in database
Track 7 not present in database
Track 8 not present in database
Track 9 not present in database
Track 10 not present in database

None of the tracks are present in the AccurateRip database

End of status report

==== Log checksum 14DCA888E886121694A812210578292A30A265BF8C5045CB597E4FFFF857AC18 ====


Leave a Reply

Your email address will not be published. Required fields are marked *

This site uses Akismet to reduce spam. Learn how your comment data is processed.