Unheilig ‎- Alles Hat Seine Zeit: Best Of Unheilig 1999-2014




Artist: Unheilig
Year: 2014
Genre: Rock
Notes: Discogs
Add. Notes:
Encoder: FLAC
Bitrate: ~1000 kBit/s (VBR)
Size: 504 MB
Password: “slam” (without ” “)


Tracklist:

1 Zeitgeist 2:35
2 Geboren Um Zu Leben 3:49
3 Als Wär's Das Erste Mal 3:00
4 Wir Sind Alle Wie Eins 3:00
5 Lichter Der Stadt 3:42
6 Wie Wir Waren
7 Für Immer 3:23
8 Winter 3:53
9 So Wie Du Warst 3:50
10 Unter Deiner Flagge 3:57
11 An Deiner Seite 3:30
12 Spiegelbild 5:37
13 Freiheit 3:52
14 Sage Ja! 3:33
15 Astronaut 3:38
16 Maschine 4:05
17 Schutzengel 4:26
18 Stark 2012 3:34
19 Rückblende 4:10

EAC-Log, CUE-Sheed & NFO:

Click to open spoiler
Exact Audio Copy V1.0 beta 4 from 7. December 2014

EAC extraction logfile from 7. September 2017, 15:57

Unheilig / Alles Hat Seine Zeit: Best Of Unheilig 1999-2014

Used drive : ASUS BW-12B1LT Adapter: 1 ID: 0

Read mode : Secure
Utilize accurate stream : Yes
Defeat audio cache : Yes
Make use of C2 pointers : No

Read offset correction : 6
Overread into Lead-In and Lead-Out : No
Fill up missing offset samples with silence : Yes
Delete leading and trailing silent blocks : No
Null samples used in CRC calculations : Yes
Used interface : Native Win32 interface for Win NT & 2000

Used output format : User Defined Encoder
Selected bitrate : 1024 kBit/s
Quality : High
Add ID3 tag : No
Command line compressor : C:\Program Files (x86)\Exact Audio Copy\Flac\flac.exe
Additional command line options : -8 -V -T “TITLE=%title%” -T “ARTIST=%artist%” -T “ALBUMARTIST=%albumartist%” -T “ALBUM=%albumtitle%” -T “DATE=%year%” -T “TRACKNUMBER=%tracknr%” -T “TRACKTOTAL=%numtracks%” -T “GENRE=%genre%” -T “COMMENT=%comment%” -T “PERFORMER=%albuminterpret%” -T “COMPOSER=%composer%” %source% -o %dest%

TOC of the extracted CD

Track | Start | Length | Start sector | End sector
———————————————————
1 | 0:00.00 | 2:34.06 | 0 | 11555
2 | 2:34.06 | 3:51.01 | 11556 | 28881
3 | 6:25.07 | 3:01.05 | 28882 | 42461
4 | 9:26.12 | 3:01.52 | 42462 | 56088
5 | 12:27.64 | 3:43.25 | 56089 | 72838
6 | 16:11.14 | 3:36.40 | 72839 | 89078
7 | 19:47.54 | 3:25.00 | 89079 | 104453
8 | 23:12.54 | 3:54.18 | 104454 | 122021
9 | 27:06.72 | 3:52.64 | 122022 | 139485
10 | 30:59.61 | 3:59.03 | 139486 | 157413
11 | 34:58.64 | 3:31.26 | 157414 | 173264
12 | 38:30.15 | 5:37.38 | 173265 | 198577
13 | 44:07.53 | 3:53.47 | 198578 | 216099
14 | 48:01.25 | 3:32.70 | 216100 | 232069
15 | 51:34.20 | 3:38.59 | 232070 | 248478
16 | 55:13.04 | 4:05.70 | 248479 | 266923
17 | 59:18.74 | 4:23.67 | 266924 | 286715
18 | 63:42.66 | 3:33.65 | 286716 | 302755
19 | 67:16.56 | 4:10.71 | 302756 | 321576

Range status and errors

Selected range

Filename F:\Unheilig\2014 – Alles Hat Seine Zeit – Best Of 1999-2014 (0602537706129)\Unheilig – Alles Hat Seine Zeit- Best Of Unheilig 1999-2014.wav

Peak level 100.0 %
Extraction speed 6.7 X
Range quality 100.0 %
Test CRC 01B630D1
Copy CRC 01B630D1
Copy OK

No errors occurred

End of status report

—- CUETools DB Plugin V2.1.4

[CTDB TOCID: fHHsTzWIOh1WBQ4C12A5OVF1oUg-] found
Submit result: already submitted
Track | CTDB Status
1 | (651/652) Accurately ripped
2 | (650/652) Accurately ripped
3 | (652/652) Accurately ripped
4 | (650/652) Accurately ripped
5 | (650/652) Accurately ripped
6 | (649/652) Accurately ripped
7 | (650/652) Accurately ripped
8 | (648/652) Accurately ripped
9 | (649/652) Accurately ripped
10 | (647/652) Accurately ripped
11 | (651/652) Accurately ripped
12 | (650/652) Accurately ripped
13 | (648/652) Accurately ripped
14 | (649/652) Accurately ripped
15 | (646/652) Accurately ripped
16 | (648/652) Accurately ripped
17 | (648/652) Accurately ripped
18 | (649/652) Accurately ripped
19 | (648/652) Accurately ripped

==== Log checksum 61E90920063952F90B0E15A686ECA2AC8EEA0A4E31E1E743AE77E6DBC44F868B ====

Leave a Reply

Your email address will not be published. Required fields are marked *

This site uses Akismet to reduce spam. Learn how your comment data is processed.