Unantastbar & Gerbenok – Oi! knocks best!




No Cover available

Artist: Unantastbar & Gerbenok
Year: 2007
Genre: Oi
Notes: Discogs
Add. Notes:
Watch Songs on: YouTube
Cover incl.: No
Encoder: FLAC
Bitrate: ~1000 kBit/s (44.1 kHz/16 Bit/s)
Log & Cue incl.: Yes
Size: 172,9 MB
Password: “slam” (without ” “)


All Downloads/Hosters are compatible

Download 1
KatFile.com
Turbobit.net
Rapidgator.net
FileFactory.com
Download 2
KatFile.com
Turbobit.net
Rapidgator.net
FileFactory.com

Tracklist:

Gerbenok – Vergesst uns nicht
Unantastbar – Anders
Gerbenok – Aussenseiter
Unantastbar – Spiel des Lebens
Gerbenok – Wir sind immernoch da
Unantastbar – Nur Verlierer verlier’n
Gerbenok/Unantastbar – Alfred Tetzlaff (Rabauken 
Cover)

EAC-Log, CUE-Sheed & NFO:

Click to open spoiler
Exact Audio Copy V1.0 beta 3 from 29. August 2011

EAC Auslese-Logdatei vom 19. Januar 2012, 12:04

Gerbenok / Unantastbar / Oi! knocks best!

Benutztes Laufwerk : HL-DT-STDVDRAM GH24LS50 Adapter: 2 ID: 1

Lesemodus : Sicher
Benutze Accurate Stream : Ja
Audio Puffer abgeschaltet : Nein
Benutze C2 Fehlerinformationen : Nein

Leseoffset Korrektur : 667
Überlesen in das Lead-In und Lead-Out : Nein
Fülle fehlende Offsetsample mit Stille auf : Ja
Lösche führende und nachfolgende stille Blöcke : Nein
Null Samples gehen in CRC Berechnungen ein : Ja
Benutzte Schnittstelle : Natürliche Win32 Schnittstelle für Win NT/2000/XP
Pausenbehandlung : Hinter dem vorigen Track angehängt

Benutztes Ausgabeformat : Benutzerdefinierter Komprimierer
Gewählte Bitrate : 1024 kBit/s
Qualität : Hoch
Füge ID3 Tag hinzu : Nein
Kommandozeilen Komprimierer : C:\Program Files (x86)\Exact Audio Copy\FLAC\FLAC.EXE
Zusätzliche Kommandozeilenoptionen : -6 -V -T “ARTIST=%artist%” -T “TITLE=%title%” -T “ALBUM=%albumtitle%” -T “DATE=%year%” -T “TRACKNUMBER=%tracknr%” -T “GENRE=%genre%” -T “COMMENT=%comment%” -T “BAND=%albuminterpret%” -T “ALBUMARTIST=%albuminterpret%” -T “COMPOSER=%composer%” %haslyrics%–tag-from-file=LYRICS=”%lyricsfile%”%haslyrics% -T “DISCNUMBER=%cdnumber%” -T “TOTALDISCS=%totalcds%” -T “TOTALTRACKS=%numtracks%” %hascover%–picture=”%coverfile%”%hascover% %source% -o %dest%

TOC der ausgelesenen CD

Track | Start | Länge | Startsektor | Endsektor
——————————————————-
1 | 0:00.00 | 3:05.73 | 0 | 13947
2 | 3:05.73 | 2:54.11 | 13948 | 27008
3 | 6:00.09 | 3:20.28 | 27009 | 42036
4 | 9:20.37 | 4:22.53 | 42037 | 61739
5 | 13:43.15 | 3:28.16 | 61740 | 77355
6 | 17:11.31 | 3:16.02 | 77356 | 92057
7 | 20:27.33 | 3:40.22 | 92058 | 108579

Track 1

Dateiname C:\Users\WhiteRiot\Documents\Gerbenok & Unantastbar – Oi! knocks best!\01. Vergesst uns nicht.wav

Pausenlänge 0:00:02.00

Spitzenpegel 72.6 %
Auslesegeschwindigkeit 7.9 X
Track Qualität 100.0 %
Test CRC 4FBF42F0
Kopie CRC 4FBF42F0
Akkurat gelesen (Zuversicht 1) [5826F65B] (AR v1)
Kopie OK

Track 2

Dateiname C:\Users\WhiteRiot\Documents\Gerbenok & Unantastbar – Oi! knocks best!\02. Anders.wav

Pausenlänge 0:00:02.00

Spitzenpegel 66.0 %
Auslesegeschwindigkeit 8.0 X
Track Qualität 100.0 %
Test CRC B58177B6
Kopie CRC B58177B6
Akkurat gelesen (Zuversicht 1) [CCD71510] (AR v1)
Kopie OK

Track 3

Dateiname C:\Users\WhiteRiot\Documents\Gerbenok & Unantastbar – Oi! knocks best!\03. Aussenseiter.wav

Pausenlänge 0:00:02.00

Spitzenpegel 72.1 %
Auslesegeschwindigkeit 8.7 X
Track Qualität 100.0 %
Test CRC EDF49BC7
Kopie CRC EDF49BC7
Akkurat gelesen (Zuversicht 1) [68BD118D] (AR v1)
Kopie OK

Track 4

Dateiname C:\Users\WhiteRiot\Documents\Gerbenok & Unantastbar – Oi! knocks best!\04. Spiel des Lebens.wav

Pausenlänge 0:00:01.74

Spitzenpegel 69.5 %
Auslesegeschwindigkeit 10.0 X
Track Qualität 100.0 %
Test CRC 31FBA49E
Kopie CRC 31FBA49E
Akkurat gelesen (Zuversicht 1) [A6B649F0] (AR v1)
Kopie OK

Track 5

Dateiname C:\Users\WhiteRiot\Documents\Gerbenok & Unantastbar – Oi! knocks best!\05. Wir sind immer noch da.wav

Pausenlänge 0:00:02.00

Spitzenpegel 69.7 %
Auslesegeschwindigkeit 10.7 X
Track Qualität 100.0 %
Test CRC 5C2CA18F
Kopie CRC 5C2CA18F
Akkurat gelesen (Zuversicht 1) [7B03D057] (AR v1)
Kopie OK

Track 6

Dateiname C:\Users\WhiteRiot\Documents\Gerbenok & Unantastbar – Oi! knocks best!\06. Nur Verlierer verlieren.wav

Pausenlänge 0:00:02.00

Spitzenpegel 65.0 %
Auslesegeschwindigkeit 10.5 X
Track Qualität 100.0 %
Test CRC 38E0B6EA
Kopie CRC 38E0B6EA
Akkurat gelesen (Zuversicht 1) [B2205D6A] (AR v1)
Kopie OK

Track 7

Dateiname C:\Users\WhiteRiot\Documents\Gerbenok & Unantastbar – Oi! knocks best!\07. Alfred Tetzlaff.wav

Pausenlänge 0:00:01.74

Spitzenpegel 71.7 %
Auslesegeschwindigkeit 11.1 X
Track Qualität 100.0 %
Test CRC F56C65D7
Kopie CRC F56C65D7
Akkurat gelesen (Zuversicht 1) [0ABEF508] (AR v1)
Kopie OK

Alle Tracks wurden akkurat gelesen

Keine Fehler aufgetreten

Ende des Statusreports

—- CUETools DB Plugin V2.1.3

[CTDB TOCID: 4lgSMy54isqU47Y_GPgx.vbdaQ4-] disk not present in database, Submit result: 4lgSMy54isqU47Y_GPgx.vbdaQ4- has been uploaded

REM GENRE Oi!
REM DATE 2007
REM DISCID 4E05A707
REM COMMENT “ExactAudioCopy v1.0b3”
PERFORMER “Gerbenok / Unantastbar”
TITLE “Oi! knocks best!”
FILE “01. Vergesst uns nicht.flac” WAVE
TRACK 01 AUDIO
TITLE “Vergesst uns nicht”
PERFORMER “Gerbenok”
FLAGS DCP
INDEX 01 00:00:00
TRACK 02 AUDIO
TITLE “Anders”
PERFORMER “Unantastbar”
FLAGS DCP
INDEX 00 03:03:73
FILE “02. Anders.flac” WAVE
INDEX 01 00:00:00
TRACK 03 AUDIO
TITLE “Aussenseiter”
PERFORMER “Gerbenok”
FLAGS DCP
INDEX 00 02:52:11
FILE “03. Aussenseiter.flac” WAVE
INDEX 01 00:00:00
TRACK 04 AUDIO
TITLE “Spiel des Lebens”
PERFORMER “Unantastbar”
FLAGS DCP
INDEX 00 03:18:29
FILE “04. Spiel des Lebens.flac” WAVE
INDEX 01 00:00:00
TRACK 05 AUDIO
TITLE “Wir sind immer noch da”
PERFORMER “Gerbenok”
FLAGS DCP
INDEX 00 04:20:53
FILE “05. Wir sind immer noch da.flac” WAVE
INDEX 01 00:00:00
TRACK 06 AUDIO
TITLE “Nur Verlierer verlieren”
PERFORMER “Unantastbar”
FLAGS DCP
INDEX 00 03:26:16
FILE “06. Nur Verlierer verlieren.flac” WAVE
INDEX 01 00:00:00
TRACK 07 AUDIO
TITLE “Alfred Tetzlaff”
PERFORMER “Gerbenok / Unantastbar”
FLAGS DCP
INDEX 00 03:14:03
FILE “07. Alfred Tetzlaff.flac” WAVE
INDEX 01 00:00:00


Leave a Reply

Your email address will not be published. Required fields are marked *

This site uses Akismet to reduce spam. Learn how your comment data is processed.