UK Subs – Complete Punk Singles Collection




No Cover available

Artist: UK Subs
Year: 2011
Genre: Punk
Notes: Discogs
Add. Notes:
Watch Songs on: YouTube
Cover incl.: Yes
Encoder: FLAC
Bitrate: ~1000 kBit/s (44.1 kHz/16 Bit/s)
Log & Cue incl.: Yes
Size: 626,1 MB
Password: “slam” (without ” “)


All Downloads/Hosters are compatible

Download 1
KatFile.com
Turbobit.net
Rapidgator.net
FileFactory.com
Download 2
KatFile.com
Turbobit.net
Rapidgator.net
FileFactory.com

Tracklist:

1-01 - C.I.D 
1-02 - Strangehold 
1-03 - Tomorrow Girls  
1-04 - She's Not There 
1-05 - Warhead  
1-06 - Teenage 
1-07 - Party In Paris 
1-08 - Keep On Running (Til You Burn) 
1-09 - Countdown 
1-10 - Self Destruct 
1-11 - Another Typical City 
1-12 - Private Army 
1-13 - This Gun Says  
1-14 - New Barbarians (Live) 
1-15 - Hey! Santa 
2-01 - Motivator 
2-02 - Sabre Dance (Extended) 
2-03 - Jodie Foster 
2-04 - Postcard From L.A. 
2-05 - Betrayal 
2-06 - War On The Pentagon 
2-07 - Day Of The Dead 
2-08 - Ciberjunk 
2-09 - Riot 
2-10 - Reclaim The Street 
2-11 - Dunken Sailor 
2-12 - 666 Yeah 
2-13 - Warhead 2008

EAC-Log, CUE-Sheed & NFO:

Click to open spoiler
Exact Audio Copy V1.1 from 23. June 2015

Отчёт EAC об извлечении, выполненном 9. октября 2015, 18:54

U. K. Subs / Complete Punk Singles Collection

Дисковод: PIONEER DVD-RW DVR-221L Adapter: 1 ID: 0

Режим чтения : Достоверность
Использование точного потока : Да
Отключение кэша аудио : Да
Использование указателей C2 : Нет

Коррекция смещения при чтении : 6
Способность читать области Lead-in и Lead-out : Нет
Заполнение пропущенных сэмплов тишиной : Да
Удаление блоков с тишиной в начале и конце : Нет
При вычислениях CRC использовались нулевые сэмплы : Да
Интерфейс : Встроенный Win32-интерфейс для Win NT/2000

Выходной формат : Внутренние WAV-операции
Формат сэмплов : 44.100 Гц; 16 бит; стерео

TOC извлечённого CD

Трек | Старт | Длительность | Начальный сектор | Конечный сектор
———————————————————————
1 | 0:00.00 | 1:55.54 | 0 | 8678
2 | 1:55.54 | 2:27.51 | 8679 | 19754
3 | 4:23.30 | 2:24.37 | 19755 | 30591
4 | 6:47.67 | 1:38.35 | 30592 | 37976
5 | 8:26.27 | 3:03.18 | 37977 | 51719
6 | 11:29.45 | 2:36.68 | 51720 | 63487
7 | 14:06.38 | 2:51.32 | 63488 | 76344
8 | 16:57.70 | 2:32.64 | 76345 | 87808
9 | 19:30.59 | 4:57.21 | 87809 | 110104
10 | 24:28.05 | 2:27.45 | 110105 | 121174
11 | 26:55.50 | 3:52.18 | 121175 | 138592
12 | 30:47.68 | 3:45.65 | 138593 | 155532
13 | 34:33.58 | 3:19.08 | 155533 | 170465
14 | 37:52.66 | 3:52.21 | 170466 | 187886
15 | 41:45.12 | 2:52.01 | 187887 | 200787

Характеристики диапазона извлечения и сообщения об ошибках

Выбранный диапазон

Имя файла D:\Rips\U.K. Subs-Complete Punk Singles Collection (2011)\CD1.wav

Пиковый уровень 98.8 %
Скорость извлечения 7.0 X
Качество диапазона 100.0 %
CRC теста 4C38E0FA
CRC копии 4C38E0FA
Копирование… OK

Ошибок не произошло

AccurateRip: сводка

Трек 1 : извлечено точно (доверие 1) [4AA2D018] (AR v2)
Трек 2 : извлечено точно (доверие 1) [ABEAE9B0] (AR v2)
Трек 3 : извлечено точно (доверие 1) [3D5B65CC] (AR v2)
Трек 4 : извлечено точно (доверие 1) [015799FC] (AR v2)
Трек 5 : извлечено точно (доверие 1) [85C33B06] (AR v2)
Трек 6 : извлечено точно (доверие 1) [15B98040] (AR v2)
Трек 7 : извлечено точно (доверие 1) [4E93866A] (AR v2)
Трек 8 : извлечено точно (доверие 1) [0A715F52] (AR v2)
Трек 9 : извлечено точно (доверие 1) [967F698B] (AR v2)
Трек 10 : извлечено точно (доверие 1) [B97D264C] (AR v2)
Трек 11 : извлечено точно (доверие 1) [F9CEF487] (AR v2)
Трек 12 : извлечено точно (доверие 1) [A7DC4246] (AR v2)
Трек 13 : извлечено точно (доверие 1) [67D5C625] (AR v2)
Трек 14 : извлечено точно (доверие 1) [C43BDF4F] (AR v2)
Трек 15 : извлечено точно (доверие 1) [31887496] (AR v2)

Все треки извлечены точно

Конец отчёта

==== Контрольная сумма отчёта 6AAABF43C654BB5B94F9990306BF814C363C6F4D04D84185C901E18A5E251CAD ====

Exact Audio Copy V1.1 from 23. June 2015

Отчёт EAC об извлечении, выполненном 9. октября 2015, 19:19

U. K. Subs / Complete Punk Singles Collection

Дисковод: PIONEER DVD-RW DVR-221L Adapter: 1 ID: 0

Режим чтения : Достоверность
Использование точного потока : Да
Отключение кэша аудио : Да
Использование указателей C2 : Нет

Коррекция смещения при чтении : 6
Способность читать области Lead-in и Lead-out : Нет
Заполнение пропущенных сэмплов тишиной : Да
Удаление блоков с тишиной в начале и конце : Нет
При вычислениях CRC использовались нулевые сэмплы : Да
Интерфейс : Встроенный Win32-интерфейс для Win NT/2000

Выходной формат : Внутренние WAV-операции
Формат сэмплов : 44.100 Гц; 16 бит; стерео

TOC извлечённого CD

Трек | Старт | Длительность | Начальный сектор | Конечный сектор
———————————————————————
1 | 0:00.00 | 2:27.05 | 0 | 11029
2 | 2:27.05 | 3:16.43 | 11030 | 25772
3 | 5:43.48 | 3:13.74 | 25773 | 40321
4 | 8:57.47 | 4:20.55 | 40322 | 59876
5 | 13:18.27 | 4:29.51 | 59877 | 80102
6 | 17:48.03 | 4:07.42 | 80103 | 98669
7 | 21:55.45 | 1:27.34 | 98670 | 105228
8 | 23:23.04 | 2:34.49 | 105229 | 116827
9 | 25:57.53 | 3:09.09 | 116828 | 131011
10 | 29:06.62 | 1:54.72 | 131012 | 139633
11 | 31:01.59 | 3:30.31 | 139634 | 155414
12 | 34:32.15 | 1:49.03 | 155415 | 163592
13 | 36:21.18 | 6:24.00 | 163593 | 192392

Характеристики диапазона извлечения и сообщения об ошибках

Выбранный диапазон

Имя файла D:\Rips\U.K. Subs-Complete Punk Singles Collection (2011)\CD2\CD2.wav

Пиковый уровень 98.9 %
Скорость извлечения 6.9 X
Качество диапазона 100.0 %
CRC теста A884078F
CRC копии A884078F
Копирование… OK

Ошибок не произошло

AccurateRip: сводка

Трек 1 : извлечено точно (доверие 1) [E4CF2CCE] (AR v2)
Трек 2 : извлечено точно (доверие 1) [C3477B42] (AR v2)
Трек 3 : извлечено точно (доверие 1) [BB817EC6] (AR v2)
Трек 4 : извлечено точно (доверие 1) [7E6E0D65] (AR v2)
Трек 5 : извлечено точно (доверие 1) [992CCECA] (AR v2)
Трек 6 : извлечено точно (доверие 1) [68DD86E9] (AR v2)
Трек 7 : извлечено точно (доверие 1) [338A448A] (AR v2)
Трек 8 : извлечено точно (доверие 1) [BE9F6BE3] (AR v2)
Трек 9 : извлечено точно (доверие 1) [0F5FE639] (AR v2)
Трек 10 : извлечено точно (доверие 1) [5F1B2E98] (AR v2)
Трек 11 : извлечено точно (доверие 1) [1F6949CB] (AR v2)
Трек 12 : извлечено точно (доверие 1) [528D3D58] (AR v2)
Трек 13 : извлечено точно (доверие 1) [E72B073C] (AR v2)

Все треки извлечены точно

Конец отчёта

==== Контрольная сумма отчёта D07340FB04330E3422E9A7B290F6FB267AB367014F1C50D85D1418CC8D44A8F9 ====

REM GENRE “Punk Rock”
REM DATE 2011
REM DISCID C80A750F
REM COMMENT “ExactAudioCopy v1.1”
PERFORMER “U. K. Subs”
TITLE “Complete Punk Singles Collection”
FILE “CD1.flac” WAVE
TRACK 01 AUDIO
TITLE “C. I. D.”
PERFORMER ” ”
INDEX 01 00:00:00
TRACK 02 AUDIO
TITLE “Stranglehold”
PERFORMER ” ”
INDEX 01 01:55:54
TRACK 03 AUDIO
TITLE “Tomorrows Girls”
PERFORMER ” ”
INDEX 01 04:23:30
TRACK 04 AUDIO
TITLE “She’s Not There”
PERFORMER ” ”
INDEX 01 06:47:67
TRACK 05 AUDIO
TITLE “Warhead”
PERFORMER ” ”
INDEX 01 08:26:27
TRACK 06 AUDIO
TITLE “Teenage”
PERFORMER ” ”
INDEX 01 11:29:45
TRACK 07 AUDIO
TITLE “Party in Paris”
PERFORMER ” ”
INDEX 01 14:06:38
TRACK 08 AUDIO
TITLE “Keep on Running (Til You Burn)”
PERFORMER ” ”
INDEX 01 16:57:70
TRACK 09 AUDIO
TITLE “Countdown”
PERFORMER ” ”
INDEX 01 19:30:59
TRACK 10 AUDIO
TITLE “Self Destruct”
PERFORMER ” ”
INDEX 01 24:28:05
TRACK 11 AUDIO
TITLE “Another Typical City ”
PERFORMER ” ”
INDEX 01 26:55:50
TRACK 12 AUDIO
TITLE “Private Army”
PERFORMER ” ”
INDEX 01 30:47:68
TRACK 13 AUDIO
TITLE “This Gun Says”
PERFORMER ” ”
INDEX 01 34:33:58
TRACK 14 AUDIO
TITLE “New Barbarians (Live)”
PERFORMER ” ”
INDEX 01 37:52:66
TRACK 15 AUDIO
TITLE “Hey! Santa”
PERFORMER ” ”
INDEX 01 41:45:12

REM GENRE “Punk Rock”
REM DATE 2011
REM DISCID A80A050D
REM COMMENT “ExactAudioCopy v1.1”
PERFORMER “U. K. Subs”
TITLE “Complete Punk Singles Collection”
FILE “CD2.flac” WAVE
TRACK 01 AUDIO
TITLE “Motivator”
PERFORMER ” ”
INDEX 01 00:00:00
TRACK 02 AUDIO
TITLE “Sabre Dance (Extended)”
PERFORMER ” ”
INDEX 01 02:27:05
TRACK 03 AUDIO
TITLE “Jodie Foster”
PERFORMER ” ”
INDEX 01 05:43:48
TRACK 04 AUDIO
TITLE “Postcard From L. A.”
PERFORMER ” ”
INDEX 01 08:57:47
TRACK 05 AUDIO
TITLE “Betrayal”
PERFORMER ” ”
INDEX 01 13:18:27
TRACK 06 AUDIO
TITLE “War on the Pentagon”
PERFORMER ” ”
INDEX 01 17:48:03
TRACK 07 AUDIO
TITLE “Day of the Dead”
PERFORMER ” ”
INDEX 01 21:55:45
TRACK 08 AUDIO
TITLE “Cyberjunk”
PERFORMER ” ”
INDEX 01 23:23:04
TRACK 09 AUDIO
TITLE “Riot ”
PERFORMER ” ”
INDEX 01 25:57:53
TRACK 10 AUDIO
TITLE “Reclaim the Street”
PERFORMER ” ”
INDEX 01 29:06:62
TRACK 11 AUDIO
TITLE “Drunken Sailor”
PERFORMER ” ”
INDEX 01 31:01:59
TRACK 12 AUDIO
TITLE “666 Yeah”
PERFORMER ” ”
INDEX 01 34:32:15
TRACK 13 AUDIO
TITLE “Warhead 2008″
PERFORMER ” ”
INDEX 01 36:21:18


Leave a Reply

Your email address will not be published. Required fields are marked *

This site uses Akismet to reduce spam. Learn how your comment data is processed.