Udo Lindenberg – Votan Wahnwitz (Remastered Deluxe Edition)




No Cover available

Artist: Udo Lindenberg
Year: 1975/2002
Genre: Rock
Notes: Discogs
Add. Notes: Remastered Deluxe Edition
Watch Songs on: YouTube
Cover incl.: Yes
Encoder: FLAC
Bitrate: ~800 kBit/s (44.1 kHz/16 Bit/s)
Log & Cue incl.: Yes/Yes
Size: 229,2 MB
Password: “slam” (without ” “)


All Downloads/Hosters are compatible

Download 1
KatFile.com
Turbobit.net
Rapidgator.net
FileFactory.com
Download 2
KatFile.com
Turbobit.net
Rapidgator.net
FileFactory.com

Tracklist:

1 Der Dirigent 1:38
2 Votan Wahnwitz 3:48
3 Daniel's Zeitmaschine 4:32
4 Da War So Viel Los 4:30
5 Der Malocher 3:54
6 Guten Tag, Herr Filmproduzent 2:19
7 0-Rhesus-Negativ 3:37
8 Elli Pyrelli 3:52
9 Alles Im Lot Auf Dem Riverboat 4:00
10 Das Kann Man Ja Auch Mal So Sehen 4:23
11 Jack 4:16

EAC-Log, CUE-Sheed & NFO:

Click to open spoiler
Exact Audio Copy V1.0 beta 3 from 29. August 2011

EAC extraction logfile from 28. July 2012, 14:09

Udo Lindenberg & das Panik-Orchester / Votan Wahnwitz (Original Album Series – Disc 3)

Used drive : PIONEER DVD RW DVR-109 Adapter: 0 ID: 1

Read mode : Secure
Utilize accurate stream : Yes
Defeat audio cache : Yes
Make use of C2 pointers : No

Read offset correction : 48
Overread into Lead-In and Lead-Out : No
Fill up missing offset samples with silence : Yes
Delete leading and trailing silent blocks : No
Null samples used in CRC calculations : Yes
Used interface : Native Win32 interface for Win NT & 2000

Used output format : Internal WAV Routines
Sample format : 44.100 Hz; 16 Bit; Stereo

TOC of the extracted CD

Track | Start | Length | Start sector | End sector
———————————————————
1 | 0:00.00 | 1:38.17 | 0 | 7366
2 | 1:38.17 | 3:50.08 | 7367 | 24624
3 | 5:28.25 | 4:32.62 | 24625 | 45086
4 | 10:01.12 | 4:32.35 | 45087 | 65521
5 | 14:33.47 | 3:55.68 | 65522 | 83214
6 | 18:29.40 | 2:21.35 | 83215 | 93824
7 | 20:51.00 | 3:39.05 | 93825 | 110254
8 | 24:30.05 | 3:53.60 | 110255 | 127789
9 | 28:23.65 | 4:02.02 | 127790 | 145941
10 | 32:25.67 | 4:32.10 | 145942 | 166351
11 | 36:58.02 | 4:16.33 | 166352 | 185584

Range status and errors

Selected range

Filename C:\Neuer Ordner (2)\Udo Lindenberg – Votan Wahnwitz.wav

Peak level 100.0 %
Extraction speed 5.7 X
Range quality 100.0 %
Test CRC CB45ECE2
Copy CRC CB45ECE2
Copy OK

No errors occurred

AccurateRip summary

Track 1 accurately ripped (confidence 11) [EA9CAD0B] (AR v2)
Track 2 accurately ripped (confidence 11) [840D9634] (AR v2)
Track 3 accurately ripped (confidence 11) [4D3B3D89] (AR v2)
Track 4 accurately ripped (confidence 11) [55D29B34] (AR v2)
Track 5 accurately ripped (confidence 11) [10393411] (AR v2)
Track 6 accurately ripped (confidence 11) [2C5F27CA] (AR v2)
Track 7 accurately ripped (confidence 11) [08F00711] (AR v2)
Track 8 accurately ripped (confidence 11) [1FDC4FB3] (AR v2)
Track 9 accurately ripped (confidence 11) [CF0222A6] (AR v2)
Track 10 accurately ripped (confidence 11) [7320F085] (AR v2)
Track 11 accurately ripped (confidence 11) [CEFBE575] (AR v2)

All tracks accurately ripped

End of status report

—- CUETools DB Plugin V2.1.3

[CTDB TOCID: dFgBwlorf.DaSzAKLw.Wm.3eAVY-] found, Submit result: dFgBwlorf.DaSzAKLw.Wm.3eAVY- has been confirmed
[da7fcdc9] (15/15) Accurately ripped

==== Log checksum FD2B8F35D20E6B1DFD57498BAEB102265D2230FF03B81EC8C13655D0FA2C813B ====

REM GENRE Pop
REM DATE 1975
REM DISCID 6B09AA0B
REM COMMENT “ExactAudioCopy v1.0b3”
PERFORMER “Udo Lindenberg & das Panik-Orchester”
TITLE “Votan Wahnwitz (Original Album Series – Disc 3)”
FILE “Udo Lindenberg – Votan Wahnwitz.flac” WAVE
TRACK 01 AUDIO
TITLE “Der Dirigent”
PERFORMER “Udo Lindenberg & das Panik-Orchester”
ISRC DEA610200398
INDEX 01 00:00:00
TRACK 02 AUDIO
TITLE “Votan Wahnwitz”
PERFORMER “Udo Lindenberg & das Panik-Orchester”
ISRC DEA610200399
INDEX 01 01:38:17
TRACK 03 AUDIO
TITLE “Daniel’s Zeitmaschine”
PERFORMER “Udo Lindenberg & das Panik-Orchester”
ISRC DEA610200400
INDEX 00 05:27:07
INDEX 01 05:28:25
TRACK 04 AUDIO
TITLE “Da war so viel los”
PERFORMER “Udo Lindenberg & das Panik-Orchester”
ISRC DEA610200401
INDEX 01 10:01:12
TRACK 05 AUDIO
TITLE “Der Malocher”
PERFORMER “Udo Lindenberg & das Panik-Orchester”
ISRC DEA610200402
INDEX 00 14:32:12
INDEX 01 14:33:47
TRACK 06 AUDIO
TITLE “Guten Tag, Herr Filmproduzent”
PERFORMER “Udo Lindenberg & das Panik-Orchester”
ISRC DEA610200403
INDEX 00 18:28:17
INDEX 01 18:29:40
TRACK 07 AUDIO
TITLE “O-Rhesus-Negativ”
PERFORMER “Udo Lindenberg & das Panik-Orchester”
ISRC DEA610200404
INDEX 00 20:49:57
INDEX 01 20:51:00
TRACK 08 AUDIO
TITLE “Elli Pyrelli”
PERFORMER “Udo Lindenberg & das Panik-Orchester”
ISRC DEA610200405
INDEX 00 24:28:52
INDEX 01 24:30:05
TRACK 09 AUDIO
TITLE “Alles im Lot auf dem Riverboat”
PERFORMER “Udo Lindenberg & das Panik-Orchester”
ISRC DEA610200406
INDEX 00 28:22:40
INDEX 01 28:23:65
TRACK 10 AUDIO
TITLE “Das kann man ja auch mal so sehen”
PERFORMER “Udo Lindenberg & das Panik-Orchester”
ISRC DEA610200407
INDEX 00 32:24:37
INDEX 01 32:25:67
TRACK 11 AUDIO
TITLE “Jack”
PERFORMER “Udo Lindenberg & das Panik-Orchester”
ISRC DEA610200408
INDEX 00 36:56:62
INDEX 01 36:58:02


Leave a Reply

Your email address will not be published. Required fields are marked *

Enter the text from the image below
 

This site uses Akismet to reduce spam. Learn how your comment data is processed.