Udo Lindenberg – Lindenbergs Rock-Revue (Remastered)




No Cover available


Artist: Udo Lindenberg
Year: 1978/2002
Genre: Rock
Notes: Discogs
Add. Notes: Remastered
Watch Songs on: YouTube
Cover incl.: Yes
Encoder: FLAC
Bitrate: ~900 kBit/s (44.1 kHz/16 Bit/s)
Log & Cue incl.: Yes/Yes
Size: 260 MB
Password: “slam” (without ” “)


All Downloads/Hosters are compatible

Download 1
KatFile.com
Turbobit.net
Rapidgator.net
FileFactory.com
Download 2
KatFile.com
Turbobit.net
Rapidgator.net
FileFactory.com

Tracklist:

1. Rockin' And Rollin' 3:55
2. Tutti Frutti 2:51
3. Verdammt, Wir Müssen Raus Aus Dem Dreck (We 
Gotta Get Out Of This Place) 4:45
4. Salty Dog 4:40
5. Ich Sitz Den Ganzen Tag Bei Den Docks (Sitting On The 
Dock Of The Bay) 3:38
6. Reeperbahn (Penny Lane) 3:22
7. Süße Kleine Sechzehn (Sweet Little Sixteen) 3:27
8. Der Boß Von Der Gang (Leader Of The Pack) 3:08
9. Sympathie Für Den Teufel (Sympathy For The Devil) 
5:30
10. Immer Noch Verrückt Nach All Den Jahren (Still Crazy 
After These Years) 2:55

Bonustitel:
11. Peter Gunn 3:16

EAC-Log, CUE-Sheed & NFO:

Click to open spoiler
Exact Audio Copy V1.0 beta 3 from 29. August 2011

EAC extraction logfile from 2. November 2012, 19:59

Udo Lindenberg / Lindenbergs Rock Revue

Used drive : PLEXTOR DVDR PX-712A Adapter: 1 ID: 0

Read mode : Secure
Utilize accurate stream : Yes
Defeat audio cache : Yes
Make use of C2 pointers : No

Read offset correction : 30
Overread into Lead-In and Lead-Out : No
Fill up missing offset samples with silence : Yes
Delete leading and trailing silent blocks : No
Null samples used in CRC calculations : Yes
Used interface : Native Win32 interface for Win NT & 2000

Used output format : Internal WAV Routines
Sample format : 44.100 Hz; 16 Bit; Stereo

TOC of the extracted CD

Track | Start | Length | Start sector | End sector
———————————————————
1 | 0:00.00 | 3:57.02 | 0 | 17776
2 | 3:57.02 | 2:53.20 | 17777 | 30771
3 | 6:50.22 | 4:46.15 | 30772 | 52236
4 | 11:36.37 | 4:42.10 | 52237 | 73396
5 | 16:18.47 | 3:39.45 | 73397 | 89866
6 | 19:58.17 | 3:22.25 | 89867 | 105041
7 | 23:20.42 | 3:27.58 | 105042 | 120624
8 | 26:48.25 | 3:08.30 | 120625 | 134754
9 | 29:56.55 | 5:31.52 | 134755 | 159631
10 | 35:28.32 | 2:56.20 | 159632 | 172851
11 | 38:24.52 | 3:18.63 | 172852 | 187764

Range status and errors

Selected range

Filename H:\Razdachi\Udo Lindenberg\Udo Lindenberg flac\Udo Lindenberg – Lindenbergs Rock Revue.wav

Peak level 100.0 %
Extraction speed 11.8 X
Range quality 100.0 %
Test CRC 683650B3
Copy CRC 683650B3
Copy OK

No errors occurred

AccurateRip summary

Track 1 accurately ripped (confidence 6) [D2B6BD21] (AR v1)
Track 2 accurately ripped (confidence 6) [FA55431D] (AR v1)
Track 3 accurately ripped (confidence 6) [F35CE48F] (AR v1)
Track 4 accurately ripped (confidence 6) [9893069E] (AR v1)
Track 5 accurately ripped (confidence 6) [00200182] (AR v1)
Track 6 accurately ripped (confidence 6) [624C8437] (AR v1)
Track 7 accurately ripped (confidence 6) [AB4DD064] (AR v1)
Track 8 accurately ripped (confidence 6) [8A975A28] (AR v1)
Track 9 accurately ripped (confidence 6) [B1B98A19] (AR v1)
Track 10 accurately ripped (confidence 6) [7FF1951A] (AR v1)
Track 11 accurately ripped (confidence 6) [640E44D0] (AR v1)

All tracks accurately ripped

End of status report

==== Log checksum BA3C82E0CF4C684F0DECE96A078C2430FF0D39A0B938EA6683EA205A002659B3 ====

REM GENRE Rock
REM DATE 2002
REM DISCID 7B09C70B
REM COMMENT “ExactAudioCopy v1.0b3”
PERFORMER “Udo Lindenberg”
TITLE “Lindenbergs Rock Revue”
FILE “Udo Lindenberg – Lindenbergs Rock Revue.flac” WAVE
TRACK 01 AUDIO
TITLE “Rockin’ and Rollin’ (1978)”
PERFORMER “Udo Lindenberg”
INDEX 01 00:00:00
TRACK 02 AUDIO
TITLE “Tutti Frutti (1978)”
PERFORMER “Udo Lindenberg”
INDEX 00 03:55:45
INDEX 01 03:57:02
TRACK 03 AUDIO
TITLE “Verdammt, wir müssen raus aus dem Dreck (1978)”
PERFORMER “Udo Lindenberg”
INDEX 00 06:48:65
INDEX 01 06:50:22
TRACK 04 AUDIO
TITLE “Salty Dog (1978)”
PERFORMER “Udo Lindenberg”
INDEX 00 11:35:15
INDEX 01 11:36:37
TRACK 05 AUDIO
TITLE “Ich sitz den ganzen Tag bei den Docks (1978)”
PERFORMER “Udo Lindenberg”
INDEX 00 16:17:17
INDEX 01 16:18:47
TRACK 06 AUDIO
TITLE “Reeperbahn (1978)”
PERFORMER “Udo Lindenberg”
INDEX 00 19:56:57
INDEX 01 19:58:17
TRACK 07 AUDIO
TITLE “Süße kleine Sechzehn (1978)”
PERFORMER “Udo Lindenberg”
INDEX 00 23:19:12
INDEX 01 23:20:42
TRACK 08 AUDIO
TITLE “Der Boß von der Gang (1978)”
PERFORMER “Udo Lindenberg”
INDEX 00 26:46:60
INDEX 01 26:48:25
TRACK 09 AUDIO
TITLE “Sympathie für den Teufel (1978)”
PERFORMER “Udo Lindenberg”
INDEX 00 29:55:30
INDEX 01 29:56:55
TRACK 10 AUDIO
TITLE “Immer noch verrückt nach all den Jahren (1978)”
PERFORMER “Udo Lindenberg”
INDEX 00 35:27:12
INDEX 01 35:28:32
TRACK 11 AUDIO
TITLE “Peter Gunn (1976)”
PERFORMER “Udo Lindenberg”
INDEX 00 38:23:10
INDEX 01 38:24:52


0

Publication author

offline 4 days

Chaos

3
Comments: 4Publics: 3565Registration: 02-02-2019
Spread the Download

Leave a Reply

Your email address will not be published. Required fields are marked *

Enter the text from the image below
 

This site uses Akismet to reduce spam. Learn how your comment data is processed.