Udo Lindenberg – Ball Pompös (Remastered)




No Cover available

Artist: Udo Lindenberg
Year: 1974/1990
Genre: Rock
Notes: Discogs
Add. Notes: Remastered
Watch Songs on: YouTube
Cover incl.: Yes
Encoder: FLAC
Bitrate: ~800 kBit/s (44.1 kHz/16 Bit/s)
Log & Cue incl.: Yes/Yes
Size: 205,6 MB
Password: “slam” (without ” “)


All Downloads/Hosters are compatible

Download 1
KatFile.com
Turbobit.net
Rapidgator.net
FileFactory.com
Download 2
KatFile.com
Turbobit.net
Rapidgator.net
FileFactory.com

Tracklist:

1 Jonny Controletti 3:09
2 Honky Tonky Show 5:26
3 Leider Nur Ein Vakuum 2:59
4 Rudi Ratlos 3:09
5 Bitte Keine Love Story 3:45
6 Gerhard Gösebrecht 2:30
7 Riskante Spiele 4:12
8 Cowboy Rocker 5:57
9 Nostalgieclub 1:52
10 Ich Bin Von Kopf Bis Fuß Auf Liebe Eingestellt 2:37
11 Glitzerknabe 1:29

EAC-Log, CUE-Sheed & NFO:

Click to open spoiler
Exact Audio Copy V1.0 beta 3 from 29. August 2011

EAC extraction logfile from 5. November 2012, 17:31

Udo Lindenberg / Ball Pompös

Used drive : PLEXTOR DVDR PX-712A Adapter: 1 ID: 0

Read mode : Secure
Utilize accurate stream : Yes
Defeat audio cache : Yes
Make use of C2 pointers : No

Read offset correction : 30
Overread into Lead-In and Lead-Out : No
Fill up missing offset samples with silence : Yes
Delete leading and trailing silent blocks : No
Null samples used in CRC calculations : Yes
Used interface : Native Win32 interface for Win NT & 2000

Used output format : Internal WAV Routines
Sample format : 44.100 Hz; 16 Bit; Stereo

TOC of the extracted CD

Track | Start | Length | Start sector | End sector
———————————————————
1 | 0:00.00 | 3:15.13 | 0 | 14637
2 | 3:15.13 | 5:31.37 | 14638 | 39499
3 | 8:46.50 | 3:00.45 | 39500 | 53044
4 | 11:47.20 | 3:11.23 | 53045 | 67392
5 | 14:58.43 | 3:49.37 | 67393 | 84604
6 | 18:48.05 | 2:30.68 | 84605 | 95922
7 | 21:18.73 | 4:14.10 | 95923 | 114982
8 | 25:33.08 | 5:57.60 | 114983 | 141817
9 | 31:30.68 | 1:51.25 | 141818 | 150167
10 | 33:22.18 | 2:36.52 | 150168 | 161919
11 | 35:58.70 | 1:31.45 | 161920 | 168789

Range status and errors

Selected range

Filename H:\Razdachi\Udo Lindenberg\Udo Lindenberg flac\Udo Lindenberg – Ball Pompoes.wav

Peak level 88.5 %
Extraction speed 9.2 X
Range quality 99.9 %
Test CRC 14A1656D
Copy CRC 14A1656D
Copy OK

No errors occurred

AccurateRip summary

Track 1 accurately ripped (confidence 13) [4C914B3B] (AR v1)
Track 2 accurately ripped (confidence 13) [3F1D792F] (AR v1)
Track 3 accurately ripped (confidence 14) [3D2B0B20] (AR v1)
Track 4 accurately ripped (confidence 13) [2BEF2C40] (AR v1)
Track 5 accurately ripped (confidence 14) [DCE88E0B] (AR v1)
Track 6 accurately ripped (confidence 14) [ABEE7E2E] (AR v1)
Track 7 accurately ripped (confidence 13) [7CDF2E97] (AR v1)
Track 8 accurately ripped (confidence 14) [FBBCDC13] (AR v1)
Track 9 accurately ripped (confidence 14) [9FB518AA] (AR v1)
Track 10 accurately ripped (confidence 12) [237A86BD] (AR v1)
Track 11 accurately ripped (confidence 14) [A8EC7B7B] (AR v1)

All tracks accurately ripped

End of status report

==== Log checksum B28EC38AA49A2B245906AC4D2C334711048A1299B192AD4002EBB24C22E50F43 ====

REM GENRE Deutsch-Rock
REM DATE 1974
REM DISCID 7C08CA0B
REM COMMENT “ExactAudioCopy v1.0b3”
PERFORMER “Udo Lindenberg”
TITLE “Ball Pompös”
FILE “Udo Lindenberg – Ball Pompoes.flac” WAVE
TRACK 01 AUDIO
TITLE “Jonny Controlleti”
PERFORMER “Udo Lindenberg”
INDEX 01 00:00:00
TRACK 02 AUDIO
TITLE “Honky Tonky Show”
PERFORMER “Udo Lindenberg”
INDEX 00 03:13:15
INDEX 01 03:15:13
TRACK 03 AUDIO
TITLE “Leider nur ein Vakuum”
PERFORMER “Udo Lindenberg”
INDEX 00 08:44:00
INDEX 01 08:46:50
TRACK 04 AUDIO
TITLE “Rudi Ratlos”
PERFORMER “Udo Lindenberg”
INDEX 00 11:45:18
INDEX 01 11:47:20
TRACK 05 AUDIO
TITLE “Bitte keine Love Story”
PERFORMER “Udo Lindenberg”
INDEX 00 14:56:48
INDEX 01 14:58:43
TRACK 06 AUDIO
TITLE “Gerhard Gösebrecht”
PERFORMER “Udo Lindenberg”
INDEX 00 18:45:03
INDEX 01 18:48:05
TRACK 07 AUDIO
TITLE “Riskante Spiele”
PERFORMER “Udo Lindenberg”
INDEX 01 21:18:73
TRACK 08 AUDIO
TITLE “Cowboy Rocker”
PERFORMER “Udo Lindenberg”
INDEX 00 25:31:43
INDEX 01 25:33:08
TRACK 09 AUDIO
TITLE “Nostalgie Club”
PERFORMER “Udo Lindenberg”
INDEX 00 31:28:43
INDEX 01 31:30:68
TRACK 10 AUDIO
TITLE “Ich bin von Kopf bis Fuß auf Liebe eingestellt”
PERFORMER “Udo Lindenberg”
INDEX 01 33:22:18
TRACK 11 AUDIO
TITLE “Glitzerknabe”
PERFORMER “Udo Lindenberg”
INDEX 01 35:58:70


0

Publication author

offline 7 days

Chaos

3
Comments: 4Publics: 3565Registration: 02-02-2019
Spread the Download

Leave a Reply

Your email address will not be published. Required fields are marked *

Enter the text from the image below
 

This site uses Akismet to reduce spam. Learn how your comment data is processed.