Udo Lindenberg – Alles unter Kontrolle




No Cover available

Artist: Udo Lindenberg
Year: 1973/1991
Genre: Rock
Notes: Discogs
Add. Notes:
Watch Songs on: YouTube
Cover incl.: Yes
Encoder: FLAC
Bitrate: ~800 kBit/s (44.1 kHz/16 Bit/s)
Log & Cue incl.: Yes/Yes
Size: 362,6 MB
Password: “slam” (without ” “)


All Downloads/Hosters are compatible

Download 1
KatFile.com
Turbobit.net
Rapidgator.net
FileFactory.com
Download 2
KatFile.com
Turbobit.net
Rapidgator.net
FileFactory.com

Tracklist:

1 Alles Klar Auf Der Andrea Doria 3:46
2 Rudi Ratlos 3:09
3 Nichts Haut EInen Seemann Um 5:06
4 Johnny Controletti 3:11
5 Honky Tonky Show 5:29
6 Baby, Wenn Ich Down Bin 3:25
7 Bodo Ballermann 3:13
8 Elli Pyrelli 3:53
9 Reeperbahn (Penny Lane) 3:20
10 Wir Wollen Doch Einfach Nur Zusammen Sein 
(Mädchen Aus Ostberlin) 3:06
11 0-Rhesus-Negativ 3:38
12 Sister King Kong 4:10
13 Ich Bin Von Kopf Bis Fuß Auf Liebe Eingestellt 2:36
14 Votan Wahnwitz 3:42
15 Straßen-Fieber 4:48
16 Daumen Im Wind 6:07

EAC-Log, CUE-Sheed & NFO:

Click to open spoiler
Exact Audio Copy V1.0 beta 3 from 29. August 2011

EAC extraction logfile from 22. November 2012, 18:57

Udo Lindenberg / Alles unter Kontrolle

Used drive : PLEXTOR DVDR PX-712A Adapter: 1 ID: 0

Read mode : Secure
Utilize accurate stream : Yes
Defeat audio cache : Yes
Make use of C2 pointers : No

Read offset correction : 30
Overread into Lead-In and Lead-Out : No
Fill up missing offset samples with silence : Yes
Delete leading and trailing silent blocks : No
Null samples used in CRC calculations : Yes
Used interface : Native Win32 interface for Win NT & 2000

Used output format : Internal WAV Routines
Sample format : 44.100 Hz; 16 Bit; Stereo

TOC of the extracted CD

Track | Start | Length | Start sector | End sector
———————————————————
1 | 0:00.00 | 3:48.05 | 0 | 17104
2 | 3:48.05 | 3:10.40 | 17105 | 31394
3 | 6:58.45 | 5:05.50 | 31395 | 54319
4 | 12:04.20 | 3:13.45 | 54320 | 68839
5 | 15:17.65 | 5:30.10 | 68840 | 93599
6 | 20:48.00 | 3:26.73 | 93600 | 109122
7 | 24:14.73 | 3:14.50 | 109123 | 123722
8 | 27:29.48 | 3:53.02 | 123723 | 141199
9 | 31:22.50 | 3:21.28 | 141200 | 156302
10 | 34:44.03 | 3:06.50 | 156303 | 170302
11 | 37:50.53 | 3:39.10 | 170303 | 186737
12 | 41:29.63 | 4:12.00 | 186738 | 205637
13 | 45:41.63 | 2:37.50 | 205638 | 217462
14 | 48:19.38 | 3:42.70 | 217463 | 234182
15 | 52:02.33 | 4:48.22 | 234183 | 255804
16 | 56:50.55 | 6:07.18 | 255805 | 283347

Range status and errors

Selected range

Filename H:\Razdachi\Udo Lindenberg\Udo Lindenberg – Alles unter Kontrolle.wav

Peak level 89.4 %
Extraction speed 10.8 X
Range quality 100.0 %
Test CRC 97B10F8F
Copy CRC 97B10F8F
Copy OK

No errors occurred

AccurateRip summary

Track 1 accurately ripped (confidence 7) [FC2C07E2] (AR v1)
Track 2 accurately ripped (confidence 8) [BA4AC9A3] (AR v1)
Track 3 accurately ripped (confidence 8) [1CE733B6] (AR v1)
Track 4 accurately ripped (confidence 8) [D15D8DFE] (AR v1)
Track 5 accurately ripped (confidence 8) [72EBF1B6] (AR v1)
Track 6 accurately ripped (confidence 8) [24B6F8D1] (AR v1)
Track 7 accurately ripped (confidence 8) [88CBE532] (AR v1)
Track 8 accurately ripped (confidence 8) [810F6CEF] (AR v1)
Track 9 accurately ripped (confidence 8) [2727B363] (AR v1)
Track 10 accurately ripped (confidence 8) [5E03F689] (AR v1)
Track 11 accurately ripped (confidence 8) [BD7E71D3] (AR v1)
Track 12 accurately ripped (confidence 8) [3E3FD12E] (AR v1)
Track 13 accurately ripped (confidence 8) [0729D6A8] (AR v1)
Track 14 accurately ripped (confidence 8) [5692DF67] (AR v1)
Track 15 accurately ripped (confidence 7) [E82E7796] (AR v1)
Track 16 accurately ripped (confidence 7) [2A3F824C] (AR v1)

All tracks accurately ripped

End of status report

==== Log checksum 3AC80810CED62139E83F08CE45F8F047CDF20F03912CE4F39D057C3B052276AA ====

REM GENRE German*
REM DATE 1973
REM DISCID C60EC110
REM COMMENT “ExactAudioCopy v1.0b3”
CATALOG 9031774810206
PERFORMER “Udo Lindenberg”
TITLE “Alles unter Kontrolle ”
FILE “Udo Lindenberg – Alles unter Kontrolle.flac” WAVE
TRACK 01 AUDIO
TITLE “Alles klar auf der Andrea Doria”
PERFORMER “Udo Lindenberg”
INDEX 01 00:00:00
TRACK 02 AUDIO
TITLE “Rudi Ratlos”
PERFORMER “Udo Lindenberg”
INDEX 00 03:47:05
INDEX 01 03:48:05
TRACK 03 AUDIO
TITLE “Nichts haut einen Seemann um”
PERFORMER “Udo Lindenberg”
INDEX 00 06:57:48
INDEX 01 06:58:45
TRACK 04 AUDIO
TITLE “Jonny Controletti”
PERFORMER “Udo Lindenberg”
INDEX 00 12:03:20
INDEX 01 12:04:20
TRACK 05 AUDIO
TITLE “Honky Tonk Show”
PERFORMER “Udo Lindenberg”
INDEX 00 15:16:70
INDEX 01 15:17:65
TRACK 06 AUDIO
TITLE “Baby, wenn ich down bin”
PERFORMER “Udo Lindenberg”
INDEX 00 20:46:70
INDEX 01 20:48:00
TRACK 07 AUDIO
TITLE “Bodo Ballermann”
PERFORMER “Udo Lindenberg”
INDEX 00 24:14:00
INDEX 01 24:14:73
TRACK 08 AUDIO
TITLE “Elli Pyrelli”
PERFORMER “Udo Lindenberg”
INDEX 00 27:28:58
INDEX 01 27:29:48
TRACK 09 AUDIO
TITLE “Reeperbahn {Penny Lane}”
PERFORMER “Udo Lindenberg”
INDEX 00 31:21:60
INDEX 01 31:22:50
TRACK 10 AUDIO
TITLE “Wir wollen doch einfach nur zusammen sein {Mädchen aus Ostberlin}”
PERFORMER “Udo Lindenberg”
INDEX 00 34:43:03
INDEX 01 34:44:03
TRACK 11 AUDIO
TITLE “0-Resus-Negativ”
PERFORMER “Udo Lindenberg”
INDEX 00 37:49:55
INDEX 01 37:50:53
TRACK 12 AUDIO
TITLE “Sister King Kong”
PERFORMER “Udo Lindenberg”
INDEX 00 41:28:73
INDEX 01 41:29:63
TRACK 13 AUDIO
TITLE “Ich bin von Kopf bis Fuß auf Liebe eingestellt”
PERFORMER “Udo Lindenberg”
INDEX 00 45:40:68
INDEX 01 45:41:63
TRACK 14 AUDIO
TITLE “Votan Wahnwitz”
PERFORMER “Udo Lindenberg”
INDEX 00 48:18:33
INDEX 01 48:19:38
TRACK 15 AUDIO
TITLE “Straßen-Fieber”
PERFORMER “Udo Lindenberg”
INDEX 00 52:01:08
INDEX 01 52:02:33
TRACK 16 AUDIO
TITLE “Daumen im Wind”
PERFORMER “Udo Lindenberg”
INDEX 00 56:49:55
INDEX 01 56:50:55


Leave a Reply

Your email address will not be published. Required fields are marked *

This site uses Akismet to reduce spam. Learn how your comment data is processed.