Udo Lindenberg – Alles Klar Auf Der Andrea Doria




No Cover available

Artist: Udo Lindenberg
Year: 1973/1987
Genre: Rock
Notes: Discogs
Add. Notes:
Watch Songs on: YouTube
Cover incl.: Yes
Encoder: FLAC
Bitrate: ~800 kBit/s (44.1 kHz/16 Bit/s)
Log & Cue incl.: Yes/Yes
Size: 193,73 MB
Password: “slam” (without ” “)


All Downloads/Hosters are compatible

Download 1
KatFile.com
Turbobit.net
Rapidgator.net
FileFactory.com
Download 2
KatFile.com
Turbobit.net
Rapidgator.net
FileFactory.com

Tracklist:

1 Alles Klar Auf Der Andrea Doria 3:48
2 Boogie Woogie-Mädchen 3:31
3 Nichts Haut Einen Seemann Um 5:06
4 Ganz Egal 4:18
5 Du Heißt Jetzt Jeremias 2:53
6 Wir Wollen Doch Nur Einfach Zusammen Sein 3:06
7 Dr. Chicago 2:59
8 Cello 2:58
9 Er Wollte Nach London 3:56
10 Die Größte Liebe 0:48

EAC-Log, CUE-Sheed & NFO:

Click to open spoiler
Exact Audio Copy V1.0 beta 3 from 29. August 2011

EAC extraction logfile from 5. November 2012, 19:01

Udo Lindenberg / Alles klar auf der Andrea Doria

Used drive : PLEXTOR DVDR PX-712A Adapter: 1 ID: 0

Read mode : Secure
Utilize accurate stream : Yes
Defeat audio cache : Yes
Make use of C2 pointers : No

Read offset correction : 30
Overread into Lead-In and Lead-Out : No
Fill up missing offset samples with silence : Yes
Delete leading and trailing silent blocks : No
Null samples used in CRC calculations : Yes
Used interface : Native Win32 interface for Win NT & 2000

Used output format : Internal WAV Routines
Sample format : 44.100 Hz; 16 Bit; Stereo

TOC of the extracted CD

Track | Start | Length | Start sector | End sector
———————————————————
1 | 0:00.33 | 3:53.37 | 33 | 17544
2 | 3:53.70 | 3:35.23 | 17545 | 33692
3 | 7:29.18 | 5:10.37 | 33693 | 56979
4 | 12:39.55 | 4:22.25 | 56980 | 76654
5 | 17:02.05 | 2:56.45 | 76655 | 89899
6 | 19:58.50 | 3:07.53 | 89900 | 103977
7 | 23:06.28 | 3:01.35 | 103978 | 117587
8 | 26:07.63 | 3:01.22 | 117588 | 131184
9 | 29:09.10 | 4:00.15 | 131185 | 149199
10 | 33:09.25 | 0:48.43 | 149200 | 152842

Range status and errors

Selected range

Filename H:\Razdachi\Udo Lindenberg\Udo Lindenberg flac\Udo Lindenberg – Alles klar auf der Andrea Doria.wav

Peak level 100.0 %
Extraction speed 9.5 X
Range quality 100.0 %
Test CRC 91EBFB5B
Copy CRC 91EBFB5B
Copy OK

No errors occurred

AccurateRip summary

Track 1 accurately ripped (confidence 14) [7174F8C8] (AR v1)
Track 2 accurately ripped (confidence 12) [5D09BEAD] (AR v1)
Track 3 accurately ripped (confidence 13) [AACFEB04] (AR v1)
Track 4 accurately ripped (confidence 13) [B94A1068] (AR v1)
Track 5 accurately ripped (confidence 13) [880ADDA9] (AR v1)
Track 6 accurately ripped (confidence 13) [B33C0B93] (AR v1)
Track 7 accurately ripped (confidence 12) [6159630F] (AR v1)
Track 8 accurately ripped (confidence 14) [58E8C6F7] (AR v1)
Track 9 accurately ripped (confidence 12) [843E2518] (AR v1)
Track 10 accurately ripped (confidence 12) [73D22D02] (AR v1)

All tracks accurately ripped

End of status report

==== Log checksum A48918F7BCD170C6736E5A11A4BADD9F9575C03A5B4292F2A0D9DA563358454B ====

REM GENRE Deutsch-Rock
REM DATE 1973
REM DISCID 7907F50A
REM COMMENT “ExactAudioCopy v1.0b3”
PERFORMER “Udo Lindenberg”
TITLE “Alles klar auf der Andrea Doria”
FILE “Udo Lindenberg – Alles klar auf der Andrea Doria.flac” WAVE
TRACK 01 AUDIO
TITLE “Alles klar auf der Andrea Doria”
PERFORMER “Udo Lindenberg”
INDEX 00 00:00:00
INDEX 01 00:00:33
TRACK 02 AUDIO
TITLE “Boogie Woogie-Mädchen”
PERFORMER “Udo Lindenberg”
INDEX 00 03:48:68
INDEX 01 03:53:70
TRACK 03 AUDIO
TITLE “Nichts haut einen Seemann um”
PERFORMER “Udo Lindenberg”
INDEX 00 07:25:10
INDEX 01 07:29:18
TRACK 04 AUDIO
TITLE “Ganz egal”
PERFORMER “Udo Lindenberg”
INDEX 00 12:35:53
INDEX 01 12:39:55
TRACK 05 AUDIO
TITLE “Du heißt jetzt Jeremias”
PERFORMER “Udo Lindenberg”
INDEX 00 16:58:08
INDEX 01 17:02:05
TRACK 06 AUDIO
TITLE “Wir wollen doch einfach nur zusammen sein”
PERFORMER “Udo Lindenberg”
INDEX 00 19:55:48
INDEX 01 19:58:50
TRACK 07 AUDIO
TITLE “Dr. Chicago”
PERFORMER “Udo Lindenberg”
INDEX 00 23:05:03
INDEX 01 23:06:28
TRACK 08 AUDIO
TITLE “Cello”
PERFORMER “Udo Lindenberg”
INDEX 00 26:05:70
INDEX 01 26:07:63
TRACK 09 AUDIO
TITLE “Er wollte nach London”
PERFORMER “Udo Lindenberg”
INDEX 00 29:06:45
INDEX 01 29:09:10
TRACK 10 AUDIO
TITLE “Die größte Liebe”
PERFORMER “Udo Lindenberg”
INDEX 00 33:05:43
INDEX 01 33:09:25


Leave a Reply

Your email address will not be published. Required fields are marked *

Enter the text from the image below
 

This site uses Akismet to reduce spam. Learn how your comment data is processed.