Toy Dolls – Orcastrated




Artist: Toy Dolls
Year: 1995
Genre: Oi
Notes: Discogs
Add. Notes:
Cover incl.: No
Encoder: FLAC
Bitrate: ~1000 kBit/s (44.1 kHz/16 Bit/s)
Log & Cue incl.: Yes
Size: 261,34 MB
Password: “slam” (without ” “)


All Downloads/Hosters are compatible

Download 1
Turbobit.net
Rapidgator.net
KatFile.com
UploadRar.com
Download 2
Turbobit.net
Rapidgator.net
KatFile.com
UploadRar.com

Tracklist:

1 - Orcastrated - 1:15
2 - Poltergeist In The Pantry - 2:46
3 - Please Release Me/ "Darling I Loathe You" - 3:55
4 - Taken For A Mug - 1:59
5 - Any Dream Will Do - 2:48
6 - Harry's Hands - 2:54
7 - David's XR2 - 3:07
8 - Pot Luck Percy - 2:41
9 - Ivy's Lurid Lips - 2:15
10 - The Psychosurgery - 2:53
11 - Ron Dixon Dumped D-D - 2:34
12 - Lazy Sunday Afternoon - 2:33
13 - Bowling Barmy - 2:32
14 - Orcastrated - 1:11

EAC-Log, CUE-Sheed & NFO:

Click to open spoiler
Exact Audio Copy V0.99 prebeta 4 from 23. January 2008

EAC extraction logfile from 12. May 2008, 11:22

Toy Dolls / Orcastrated

Used drive : ASUS DRW-1814BL Adapter: 1 ID: 1

Read mode : Secure
Utilize accurate stream : Yes
Defeat audio cache : Yes
Make use of C2 pointers : No

Read offset correction : 6
Overread into Lead-In and Lead-Out : No
Fill up missing offset samples with silence : Yes
Delete leading and trailing silent blocks : No
Null samples used in CRC calculations : Yes
Used interface : Installed external ASPI interface
Gap handling : Not detected, thus appended to previous track

Used output format : Internal WAV Routines
Sample format : 44.100 Hz; 16 Bit; Stereo

TOC of the extracted CD

Track | Start | Length | Start sector | End sector
———————————————————
1 | 0:00.00 | 1:15.19 | 0 | 5643
2 | 1:15.19 | 2:46.14 | 5644 | 18107
3 | 4:01.33 | 3:55.07 | 18108 | 35739
4 | 7:56.40 | 1:59.29 | 35740 | 44693
5 | 9:55.69 | 2:48.26 | 44694 | 57319
6 | 12:44.20 | 2:53.31 | 57320 | 70325
7 | 15:37.51 | 3:08.47 | 70326 | 84472
8 | 18:46.23 | 2:41.18 | 84473 | 96565
9 | 21:27.41 | 2:15.30 | 96566 | 106720
10 | 23:42.71 | 2:54.03 | 106721 | 119773
11 | 26:36.74 | 2:34.52 | 119774 | 131375
12 | 29:11.51 | 2:33.55 | 131376 | 142905
13 | 31:45.31 | 2:32.21 | 142906 | 154326
14 | 34:17.52 | 1:10.09 | 154327 | 159585

Track 1

Filename F:\Upload\Toy Dolls – Orcastrated\01. Orcastrated.wav

Peak level 98.8 %
Track quality 100.0 %
Test CRC D99B1E51
Copy CRC D99B1E51
Copy OK

Track 2

Filename F:\Upload\Toy Dolls – Orcastrated\02. Poltergeist In The Pantry.wav

Peak level 98.8 %
Track quality 100.0 %
Test CRC 23882D61
Copy CRC 23882D61
Copy OK

Track 3

Filename F:\Upload\Toy Dolls – Orcastrated\03. Please Release Me,’Darling I Loathe You’.wav

Peak level 98.8 %
Track quality 99.9 %
Test CRC 35AB240D
Copy CRC 35AB240D
Copy OK

Track 4

Filename F:\Upload\Toy Dolls – Orcastrated\04. Taken For A Mug.wav

Peak level 98.8 %
Track quality 100.0 %
Test CRC 9B163100
Copy CRC 9B163100
Copy OK

Track 5

Filename F:\Upload\Toy Dolls – Orcastrated\05. Any Dream Will Do.wav

Peak level 98.8 %
Track quality 99.9 %
Test CRC 4BB9B19C
Copy CRC 4BB9B19C
Copy OK

Track 6

Filename F:\Upload\Toy Dolls – Orcastrated\06. Harry`s Hands.wav

Peak level 98.8 %
Track quality 100.0 %
Test CRC B2ACEE3D
Copy CRC B2ACEE3D
Copy OK

Track 7

Filename F:\Upload\Toy Dolls – Orcastrated\07. David`s XR2.wav

Peak level 98.8 %
Track quality 99.9 %
Test CRC 747E2938
Copy CRC 747E2938
Copy OK

Track 8

Filename F:\Upload\Toy Dolls – Orcastrated\08. Pot Lucky Percy.wav

Peak level 98.8 %
Track quality 100.0 %
Test CRC 201E5ED6
Copy CRC 201E5ED6
Copy OK

Track 9

Filename F:\Upload\Toy Dolls – Orcastrated\09. Ivy`s Lurid Lips.wav

Peak level 98.8 %
Track quality 100.0 %
Test CRC 0832533E
Copy CRC 0832533E
Copy OK

Track 10

Filename F:\Upload\Toy Dolls – Orcastrated\10. The Psychosurgery.wav

Peak level 98.8 %
Track quality 100.0 %
Test CRC 7B6C0A28
Copy CRC 7B6C0A28
Copy OK

Track 11

Filename F:\Upload\Toy Dolls – Orcastrated\11. Ron Dixon Dumped D-D.wav

Peak level 98.8 %
Track quality 100.0 %
Test CRC 3D8B7D37
Copy CRC 3D8B7D37
Copy OK

Track 12

Filename F:\Upload\Toy Dolls – Orcastrated\12. Lazy Sunday Afternoon.wav

Peak level 98.8 %
Track quality 99.9 %
Test CRC 777E4D2E
Copy CRC 777E4D2E
Copy OK

Track 13

Filename F:\Upload\Toy Dolls – Orcastrated\13. Bowling Barmy.wav

Peak level 98.8 %
Track quality 100.0 %
Test CRC 745E271C
Copy CRC 745E271C
Copy OK

Track 14

Filename F:\Upload\Toy Dolls – Orcastrated\14. Orcastrated.wav

Peak level 98.8 %
Track quality 100.0 %
Test CRC 191B0836
Copy CRC 191B0836
Copy OK

No errors occurred

End of status report

REM GENRE “Punk Rock”
REM DATE 1995
REM DISCID DC084F0E
REM COMMENT “ExactAudioCopy v0.99pb4”
PERFORMER “Toy Dolls”
TITLE “Orcastrated”
FILE “01. Orcastrated.wav” WAVE
TRACK 01 AUDIO
TITLE “Orcastrated”
PERFORMER “Toy Dolls”
INDEX 01 00:00:00
FILE “02. Poltergeist In The Pantry.wav” WAVE
TRACK 02 AUDIO
TITLE “Poltergeist In The Pantry”
PERFORMER “Toy Dolls”
INDEX 01 00:00:00
FILE “03. Please Release Me,’Darling I Loathe You’.wav” WAVE
TRACK 03 AUDIO
TITLE “Please Release Me/’Darling I Loathe You'”
PERFORMER “Toy Dolls”
INDEX 01 00:00:00
FILE “04. Taken For A Mug.wav” WAVE
TRACK 04 AUDIO
TITLE “Taken For A Mug”
PERFORMER “Toy Dolls”
INDEX 01 00:00:00
FILE “05. Any Dream Will Do.wav” WAVE
TRACK 05 AUDIO
TITLE “Any Dream Will Do”
PERFORMER “Toy Dolls”
INDEX 01 00:00:00
FILE “06. Harry`s Hands.wav” WAVE
TRACK 06 AUDIO
TITLE “Harry`s Hands”
PERFORMER “Toy Dolls”
INDEX 01 00:00:00
FILE “07. David`s XR2.wav” WAVE
TRACK 07 AUDIO
TITLE “David`s XR2”
PERFORMER “Toy Dolls”
INDEX 01 00:00:00
FILE “08. Pot Lucky Percy.wav” WAVE
TRACK 08 AUDIO
TITLE “Pot Lucky Percy”
PERFORMER “Toy Dolls”
INDEX 01 00:00:00
FILE “09. Ivy`s Lurid Lips.wav” WAVE
TRACK 09 AUDIO
TITLE “Ivy`s Lurid Lips”
PERFORMER “Toy Dolls”
INDEX 01 00:00:00
FILE “10. The Psychosurgery.wav” WAVE
TRACK 10 AUDIO
TITLE “The Psychosurgery”
PERFORMER “Toy Dolls”
INDEX 01 00:00:00
FILE “11. Ron Dixon Dumped D-D.wav” WAVE
TRACK 11 AUDIO
TITLE “Ron Dixon Dumped D-D”
PERFORMER “Toy Dolls”
INDEX 01 00:00:00
FILE “12. Lazy Sunday Afternoon.wav” WAVE
TRACK 12 AUDIO
TITLE “Lazy Sunday Afternoon”
PERFORMER “Toy Dolls”
INDEX 01 00:00:00
FILE “13. Bowling Barmy.wav” WAVE
TRACK 13 AUDIO
TITLE “Bowling Barmy”
PERFORMER “Toy Dolls”
INDEX 01 00:00:00
FILE “14. Orcastrated.wav” WAVE
TRACK 14 AUDIO
TITLE “Orcastrated”
PERFORMER “Toy Dolls”
INDEX 01 00:00:00


Leave a Reply

Your email address will not be published. Required fields are marked *

This site uses Akismet to reduce spam. Learn how your comment data is processed.