Toy Dolls – Idle Gossip




Artist: Toy Dolls
Year: 1986
Genre: Oi
Notes: Discogs
Add. Notes:
Cover incl.: Yes
Encoder: FLAC
Bitrate: ~1100 kBit/s (44.1 kHz/16 Bit/s)
Log & Cue incl.: Yes
Size: 394,3 MB
Password: “slam” (without ” “)


All Downloads/Hosters are compatible

Download 1
Turbobit.net
Rapidgator.net
KatFile.com
UploadRar.com
Download 2
Turbobit.net
Rapidgator.net
KatFile.com
UploadRar.com
Download 3
Turbobit.net
Rapidgator.net
KatFile.com
UploadRar.com

Tracklist:

1 - Idle Gossip - 2:33
2 - Do You Wanna Be Like Dougy Bell - 2:39
3 - The Lambrusco Kid - 3:28
4 - You Won't Be Merry On A North Sea Ferry - 3:09
5 - Harry Cross (A Tribute To Edna) - 3:44
6 - Geordie's Gone To Jail - 3:36
7 - Silly Billy - 2:09
8 - You're In A Pop Group - 2:56
9 - PC Stoker - 2:56
10 - I Tried To Trust Tracy - 3:40
11 - Keith's A Thief - 2:05
12 - I'll Get Even With Steven (Steve Is Tender) - 3:18

EAC-Log, CUE-Sheed & NFO:

Click to open spoiler
Exact Audio Copy V0.99 prebeta 4 from 23. January 2008

Отчёт EAC об извлечении, выполненном 11. февраля 2009, 14:16

Toy Dolls / Idle Gossip

Дисковод: _NEC DVD_RW ND-3540A Adapter: 0 ID: 1

Режим чтения : Достоверность
Использование точного потока : Да
Отключение кэша аудио : Да
Использование указателей C2 : Нет

Коррекция смещения при чтении : 48
Способность читать области Lead-in и Lead-out : Нет
Заполнение пропущенных сэмплов тишиной : Да
Удаление блоков с тишиной в начале и конце : Нет
При вычислениях CRC использовались нулевые сэмплы : Да
Интерфейс : Установленный внешний ASPI-интерфейс

Выходной формат : Monkey’s Audio (без потерь)
Выбранный битрейт : Fast Lossless Compression
Качество : Высокий
Добавление ID3-тэга : Нет
Утилита сжатия : C:\Program Files\Monkey’s Audio\Monkey’s Audio.exe

TOC извлечённого CD

Трек | Старт | Длительность | Начальный сектор | Конечный сектор
———————————————————————
1 | 0:00.00 | 2:33.11 | 0 | 11485
2 | 2:33.11 | 2:39.10 | 11486 | 23420
3 | 5:12.21 | 3:28.17 | 23421 | 39037
4 | 8:40.38 | 3:09.04 | 39038 | 53216
5 | 11:49.42 | 3:44.65 | 53217 | 70081
6 | 15:34.32 | 3:33.63 | 70082 | 86119
7 | 19:08.20 | 2:10.09 | 86120 | 95878
8 | 21:18.29 | 2:56.73 | 95879 | 109151
9 | 24:15.27 | 2:56.35 | 109152 | 122386
10 | 27:11.62 | 3:40.35 | 122387 | 138921
11 | 30:52.22 | 2:05.32 | 138922 | 148328
12 | 32:57.54 | 3:16.48 | 148329 | 163076
13 | 36:14.27 | 3:48.69 | 163077 | 180245
14 | 40:03.21 | 5:08.39 | 180246 | 203384
15 | 45:11.60 | 3:21.74 | 203385 | 218533
16 | 48:33.59 | 3:48.36 | 218534 | 235669

Характеристики диапазона извлечения и сообщения об ошибках

Выбранный диапазон

Имя файла C:\EAC\Toy Dolls – Idle Gossip.wav

Пиковый уровень 97.7 %
Качество диапазона 100.0 %
CRC копии CF5BB41F
Копирование… OK

Ошибок не произошло

Конец отчёта

REM GENRE “Punk Rock”
REM DATE 1986
REM DISCID CE0C4610
REM COMMENT “ExactAudioCopy v0.99pb4”
PERFORMER “Toy Dolls”
TITLE “Idle Gossip”
FILE “Toy Dolls – Idle Gossip.ape” WAVE
TRACK 01 AUDIO
TITLE “Idle Gossip”
PERFORMER “Toy Dolls”
INDEX 01 00:00:00
TRACK 02 AUDIO
TITLE “Do You Wanna Be Like Dougy Bell”
PERFORMER “Toy Dolls”
INDEX 01 02:33:11
TRACK 03 AUDIO
TITLE “The Lambrusco Kid”
PERFORMER “Toy Dolls”
INDEX 01 05:12:21
TRACK 04 AUDIO
TITLE “You Won’t Be Happy On A North Sea Ferry”
PERFORMER “Toy Dolls”
INDEX 01 08:40:38
TRACK 05 AUDIO
TITLE “Harry Cross (A Tribute To Edna)”
PERFORMER “Toy Dolls”
INDEX 01 11:49:42
TRACK 06 AUDIO
TITLE “Geordie’s Gone To Jail”
PERFORMER “Toy Dolls”
INDEX 01 15:34:32
TRACK 07 AUDIO
TITLE “Silly Billy”
PERFORMER “Toy Dolls”
INDEX 01 19:08:20
TRACK 08 AUDIO
TITLE “If You’re In A Pop Group You’ll End Up Paying A Forture Practising At Peter P…”
PERFORMER “Toy Dolls”
INDEX 01 21:18:29
TRACK 09 AUDIO
TITLE “PC Storker”
PERFORMER “Toy Dolls”
INDEX 01 24:15:27
TRACK 10 AUDIO
TITLE “I Tried To Trust Tracy”
PERFORMER “Toy Dolls”
INDEX 01 27:11:62
TRACK 11 AUDIO
TITLE “Keith’s A Thief”
PERFORMER “Toy Dolls”
INDEX 01 30:52:22
TRACK 12 AUDIO
TITLE “I’ll Get Even With Steven (Steve Is Tender)”
PERFORMER “Toy Dolls”
INDEX 01 32:57:54
TRACK 13 AUDIO
TITLE “James Bound Lives Down Our Street”
PERFORMER “Toy Dolls”
INDEX 01 36:14:27
TRACK 14 AUDIO
TITLE “Olga….I Cannot”
PERFORMER “Toy Dolls”
INDEX 01 40:03:21
TRACK 15 AUDIO
TITLE “Griefsville”
PERFORMER “Toy Dolls”
INDEX 01 45:11:60
TRACK 16 AUDIO
TITLE “Geordie’s Fone To Jail (Japanese Version)”
PERFORMER “Toy Dolls”
INDEX 01 48:33:59


Leave a Reply

Your email address will not be published. Required fields are marked *

This site uses Akismet to reduce spam. Learn how your comment data is processed.