Toy Dolls – Dig That Groove Baby




Artist: Toy Dolls
Year: 1983/1992
Genre: Punk
Notes: Discogs
Add. Notes:
Cover incl.: Yes
Encoder: FLAC
Bitrate: ~1000 kBit/s (44.1 kHz/16 Bit/s)
Log & Cue incl.: Yes
Size: 515,34 MB
Password: “slam” (without ” “)


All Downloads/Hosters are compatible

Download 1
Turbobit.net
Rapidgator.net
UploadEver.com
KatFile.com
UsersDrive.com
Download 2
Turbobit.net
Rapidgator.net
UploadEver.com
KatFile.com
UsersDrive.com
Download 3
Turbobit.net
Rapidgator.net
UploadEver.com
KatFile.com
UsersDrive.com

Tracklist:

1 - Theme Tune - 0:21
2 - Dig That Groove Baby - 3:00
3 - Dougy Giro - 3:16
4 - Spiders In The Dressing Room - 1:57
5 - Glenda And The Test Tube Baby - 3:15
6 - Up The Garden Path - 2:44
7 - Nellie The Elephant - 3:27
8 - Poor Davey - 3:22
9 - Stay Mellow - 2:18
10 - Queen Alexandra Road Is Where She Said She'd Be - 
2:18
11 - Worse Things Happen At Sea - 2:40
12 - Blue Suede Shoes - 2:16
13 - Firey Jack - 2:54
14 - Theme Tune - 0:20

EAC-Log, CUE-Sheed & NFO:

Click to open spoiler
Exact Audio Copy V0.99 prebeta 4 from 23. January 2008

Отчёт EAC об извлечении, выполненном 11. февраля 2009, 14:32

Toy Dolls / Dig That Groove Baby

Дисковод: _NEC DVD_RW ND-3540A Adapter: 0 ID: 1

Режим чтения : Достоверность
Использование точного потока : Да
Отключение кэша аудио : Да
Использование указателей C2 : Нет

Коррекция смещения при чтении : 48
Способность читать области Lead-in и Lead-out : Нет
Заполнение пропущенных сэмплов тишиной : Да
Удаление блоков с тишиной в начале и конце : Нет
При вычислениях CRC использовались нулевые сэмплы : Да
Интерфейс : Установленный внешний ASPI-интерфейс

Выходной формат : Monkey’s Audio (без потерь)
Выбранный битрейт : Fast Lossless Compression
Качество : Высокий
Добавление ID3-тэга : Нет
Утилита сжатия : C:\Program Files\Monkey’s Audio\Monkey’s Audio.exe

TOC извлечённого CD

Трек | Старт | Длительность | Начальный сектор | Конечный сектор
———————————————————————
1 | 0:00.00 | 0:20.02 | 0 | 1501
2 | 0:20.02 | 3:00.68 | 1502 | 15069
3 | 3:20.70 | 3:16.16 | 15070 | 29785
4 | 6:37.11 | 1:56.25 | 29786 | 38510
5 | 8:33.36 | 3:15.61 | 38511 | 53196
6 | 11:49.22 | 2:43.10 | 53197 | 65431
7 | 14:32.32 | 3:27.36 | 65432 | 80992
8 | 17:59.68 | 3:22.30 | 80993 | 96172
9 | 21:22.23 | 2:18.11 | 96173 | 106533
10 | 23:40.34 | 2:18.00 | 106534 | 116883
11 | 25:58.34 | 2:39.46 | 116884 | 128854
12 | 28:38.05 | 2:16.53 | 128855 | 139107
13 | 30:54.58 | 2:53.43 | 139108 | 152125
14 | 33:48.26 | 0:18.71 | 152126 | 153546
15 | 34:07.22 | 2:44.38 | 153547 | 165884
16 | 36:51.60 | 3:19.06 | 165885 | 180815
17 | 40:10.66 | 4:18.02 | 180816 | 200167
18 | 44:28.68 | 3:16.21 | 200168 | 214888
19 | 47:45.14 | 2:28.17 | 214889 | 226005
20 | 50:13.31 | 2:26.48 | 226006 | 237003
21 | 52:40.04 | 2:34.00 | 237004 | 248553
22 | 55:14.04 | 3:22.07 | 248554 | 263710
23 | 58:36.11 | 3:45.64 | 263711 | 280649
24 | 62:22.00 | 3:22.51 | 280650 | 295850
25 | 65:44.51 | 3:31.01 | 295851 | 311676
26 | 69:15.52 | 2:56.72 | 311677 | 324948

Характеристики диапазона извлечения и сообщения об ошибках

Выбранный диапазон

Имя файла C:\EAC\Toy Dolls – Dig That Groove Baby.wav

Пиковый уровень 97.7 %
Качество диапазона 100.0 %
CRC копии 4EC00C63
Копирование… OK

Ошибок не произошло

Конец отчёта

REM GENRE Punk
REM DATE 1983
REM DISCID 4A10EC1A
REM COMMENT “ExactAudioCopy v0.99pb4”
PERFORMER “Toy Dolls”
TITLE “Dig That Groove Baby”
FILE “Toy Dolls – Dig That Groove Baby.ape” WAVE
TRACK 01 AUDIO
TITLE “Theme Tune”
PERFORMER “Toy Dolls”
INDEX 01 00:00:00
TRACK 02 AUDIO
TITLE “Dig That Groove Baby”
PERFORMER “Toy Dolls”
INDEX 01 00:20:02
TRACK 03 AUDIO
TITLE “Dougy Giro”
PERFORMER “Toy Dolls”
INDEX 01 03:20:70
TRACK 04 AUDIO
TITLE “Spiders In The Dressing Room”
PERFORMER “Toy Dolls”
INDEX 01 06:37:11
TRACK 05 AUDIO
TITLE “Glenda & The Test Tube Baby”
PERFORMER “Toy Dolls”
INDEX 01 08:33:36
TRACK 06 AUDIO
TITLE “Up The Garden Path”
PERFORMER “Toy Dolls”
INDEX 01 11:49:22
TRACK 07 AUDIO
TITLE “Nellie The Elephant”
PERFORMER “Toy Dolls”
INDEX 01 14:32:32
TRACK 08 AUDIO
TITLE “Poor Davey”
PERFORMER “Toy Dolls”
INDEX 01 17:59:68
TRACK 09 AUDIO
TITLE “Stay Mellow”
PERFORMER “Toy Dolls”
INDEX 01 21:22:23
TRACK 10 AUDIO
TITLE “Queen Alexandra Road Is Where She Said She’d Be But Was She There To Meet Me …”
PERFORMER “Toy Dolls”
INDEX 01 23:40:34
TRACK 11 AUDIO
TITLE “Worse Things Happen At Sea”
PERFORMER “Toy Dolls”
INDEX 01 25:58:34
TRACK 12 AUDIO
TITLE “Blue Suede Shoes”
PERFORMER “Toy Dolls”
INDEX 01 28:38:05
TRACK 13 AUDIO
TITLE “Fiery Jack”
PERFORMER “Toy Dolls”
INDEX 01 30:54:58
TRACK 14 AUDIO
TITLE “Theme Tune”
PERFORMER “Toy Dolls”
INDEX 01 33:48:26
TRACK 15 AUDIO
TITLE “Tommy Kowey’s Car (Original Single Version)”
PERFORMER “Toy Dolls”
INDEX 01 34:07:22
TRACK 16 AUDIO
TITLE “She Goes To Finos (Original Single Version)”
PERFORMER “Toy Dolls”
INDEX 01 36:51:60
TRACK 17 AUDIO
TITLE “Deidree’s A Slag (Strength Thru Oi! Version)”
PERFORMER “Toy Dolls”
INDEX 01 40:10:66
TRACK 18 AUDIO
TITLE “She Goes To Finos (Strength Thru Oi! Version)”
PERFORMER “Toy Dolls”
INDEX 01 44:28:68
TRACK 19 AUDIO
TITLE “Tommy Kowey’s Car (EP Version)”
PERFORMER “Toy Dolls”
INDEX 01 47:45:14
TRACK 20 AUDIO
TITLE “She’s A Worky Ticket (EP Version)”
PERFORMER “Toy Dolls”
INDEX 01 50:13:31
TRACK 21 AUDIO
TITLE “Everybody Jitterburg (EP Version)”
PERFORMER “Toy Dolls”
INDEX 01 52:40:04
TRACK 22 AUDIO
TITLE “Teenager In Love / I’ve Go Asthma (Single Version)”
PERFORMER “Toy Dolls”
INDEX 01 55:14:04
TRACK 23 AUDIO
TITLE “Cheerio & Toodle Pip”
PERFORMER “Toy Dolls”
INDEX 01 58:36:11
TRACK 24 AUDIO
TITLE “H. O.”
PERFORMER “Toy Dolls”
INDEX 01 62:22:00
TRACK 25 AUDIO
TITLE “Alfie From The Bronx”
PERFORMER “Toy Dolls”
INDEX 01 65:44:51
TRACK 26 AUDIO
TITLE “Hanky Panky”
PERFORMER “Toy Dolls”
INDEX 01 69:15:52


Leave a Reply

Your email address will not be published. Required fields are marked *

This site uses Akismet to reduce spam. Learn how your comment data is processed.