Toy Dolls – Bare Faced Cheek




Artist: Toy Dolls
Year: 1987
Genre: Punk
Notes: Discogs
Add. Notes:
Cover incl.: Yes
Encoder: FLAC
Bitrate: ~900 kBit/s (44.1 kHz/16 Bit/s)
Log & Cue incl.: Yes
Size: 220,82 MB
Password: “slam” (without ” “)


All Downloads/Hosters are compatible

Download 1
Turbobit.net
Rapidgator.net
KatFile.com
UploadRar.com
Download 2
Turbobit.net
Rapidgator.net
KatFile.com
UploadRar.com
Download 3
Turbobit.net
Rapidgator.net
KatFile.com
UploadRar.com

Tracklist:

1. Bare Faced Cheek (Intro)
2. Yul Brynner Was A Skinhead 
3. How Do You Deal With Neal?
4. Howza Bouta Kiss Babe??!
5. Fisticuffs In Frederick Street
6. A. Diamond
7. Quick To Quit The Quentin
8. Nowt Can Compare To Sunderland Fine Fare
9. Neville Is A Nerd
10. Park Lane Punch Up
11. The Ashbrooke Launderette 
12. Bare Faced Cheek (Outro)

EAC-Log, CUE-Sheed & NFO:

Click to open spoiler
EAC extraction logfile from 12. August 2006, 11:50 for CD
Toy Dolls / Bare Faced Cheek

Used drive : HL-DT-STDVDRAM GSA-H10A Adapter: 0 ID: 0
Read mode : Secure with NO C2, accurate stream, disable cache
Read offset correction : 667
Overread into Lead-In and Lead-Out : No

Used output format : C:\Program Files\Exact Audio Copy\MAC.exe (Monkey’s Audio Lossless Encoder)
High Lossless Compression

Other options :
Fill up missing offset samples with silence : Yes
Delete leading and trailing silent blocks : No
Installed external ASPI interface

Range status and errors
Selected range
Filename C:\Documents and Settings\M\Plocha\td- bare\Toy Dolls – Bare Faced Cheek.wav.wav

Peak level 100.0 %
Range quality 100.0 %
CRC B06643AF
Copy OK

No errors occured

End of status report

REM DISCID A207B30C
REM COMMENT “ExactAudioCopy v0.95b4”
PERFORMER “Toy Dolls”
TITLE “Bare Faced Cheek”
FILE “Toy Dolls – Bare Faced Cheek.ape”
TRACK 01 AUDIO
TITLE “Bare Faced Cheek”
PERFORMER “Toy Dolls”
INDEX 00 00:00:00
INDEX 01 00:00:32
TRACK 02 AUDIO
TITLE “Yul Brunner Was A Skinhead”
PERFORMER “Toy Dolls”
INDEX 01 00:51:05
TRACK 03 AUDIO
TITLE “How Do You Deal With Neal?”
PERFORMER “Toy Dolls”
INDEX 01 03:46:30
TRACK 04 AUDIO
TITLE “Howza Bouta Kiss Babe?!?”
PERFORMER “Toy Dolls”
INDEX 01 06:54:07
TRACK 05 AUDIO
TITLE “Fisticuffs In Frederick Street”
PERFORMER “Toy Dolls”
INDEX 01 09:44:50
TRACK 06 AUDIO
TITLE “A Diamond”
PERFORMER “Toy Dolls”
INDEX 01 13:04:32
TRACK 07 AUDIO
TITLE “Quick To Quit The Quentin”
PERFORMER “Toy Dolls”
INDEX 00 16:29:40
INDEX 01 16:31:17
TRACK 08 AUDIO
TITLE “Nowt Can Compare To Sunderland Fine Fare”
PERFORMER “Toy Dolls”
INDEX 01 19:20:17
TRACK 09 AUDIO
TITLE “Neville Is A Nerd”
PERFORMER “Toy Dolls”
INDEX 01 22:23:12
TRACK 10 AUDIO
TITLE “Park Lane Punch Up”
PERFORMER “Toy Dolls”
INDEX 01 25:06:12
TRACK 11 AUDIO
TITLE “The Ashbrooke Launderette…..You’ll Stink, Your Clothes Shrink, Your White’l…”
PERFORMER “Toy Dolls”
INDEX 01 28:51:22
TRACK 12 AUDIO
TITLE “Bare Faced Cheek”
PERFORMER “Toy Dolls”
INDEX 01 32:21:00

AUDIOCHECKER v1.2 – by Dester – opdester@freemail.hu
~~~~~~~~~~~~~~~~~

1 -===- C:\Torrent\Toy Dolls – 1987 – Bare Faced Cheek\Toy Dolls – Bare Faced Cheek.ape
Extracted successfully
Conclusion: This track looks like CDDA with probability 100%


Leave a Reply

Your email address will not be published. Required fields are marked *

This site uses Akismet to reduce spam. Learn how your comment data is processed.