Toy Dolls – A Far Out Disc




Artist: Toy Dolls
Year: 2003
Genre: Oi
Notes: Discogs
Add. Notes:
Cover incl.: Yes
Encoder: FLAC
Bitrate: ~800 kBit/s (44.1 kHz/16 Bit/s)
Log & Cue incl.: Yes
Size: 367,07 MB
Password: “slam” (without ” “)


All Downloads/Hosters are compatible

Download 1
Turbobit.net
Rapidgator.net
KatFile.com
UploadRar.com
Download 2
Turbobit.net
Rapidgator.net
KatFile.com
UploadRar.com

Tracklist:

1 - A Far Out Theme Tune - 0:19
2 - She Goes To Finos - 3:37
3 - Razzamataz Intro - 1:44
4 - Modern Schools Of Motoring - 3:40
5 - Carol Dodds Is Pregnant - 3:25
6 - You And A Box Of Handkerchiefs - 2:06
7 - Bless You My Son - 2:30
8 - My Girlfriend's Dad's A Vicar - 1:08
9 - Come Back Jackie - 3:07
10 - Do You Want To Finish... Or What?! - 2:34
11 - Commercial Break - 1:42
12 - 'Chartbuster' / Razzamatazz Outro - 2:48
13 - We're Mad - 4:52
14 - Wipe Out! - 2:04
15 - Florence Is Deaf (But There's No Need To Shout) - 
2:34
16 - A Far Out Theme Tune - 0:27
17 - Deidree's A Slag - 3:29
18 - Rupert The Bear - 1:43
19 - Nellie The Elephant (1984 Version) - 2:59
20 - Fisticuffs In Frederick Street - 3:21

EAC-Log, CUE-Sheed & NFO:

Click to open spoiler
Exact Audio Copy V0.99 prebeta 4 from 23. January 2008

Отчёт EAC об извлечении, выполненном 11. февраля 2009, 14:01

The Toy Dolls / A Far out Disc

Дисковод: _NEC DVD_RW ND-3540A Adapter: 0 ID: 1

Режим чтения : Достоверность
Использование точного потока : Да
Отключение кэша аудио : Да
Использование указателей C2 : Нет

Коррекция смещения при чтении : 48
Способность читать области Lead-in и Lead-out : Нет
Заполнение пропущенных сэмплов тишиной : Да
Удаление блоков с тишиной в начале и конце : Нет
При вычислениях CRC использовались нулевые сэмплы : Да
Интерфейс : Установленный внешний ASPI-интерфейс

Выходной формат : Monkey’s Audio (без потерь)
Выбранный битрейт : Fast Lossless Compression
Качество : Высокий
Добавление ID3-тэга : Нет
Утилита сжатия : C:\Program Files\Monkey’s Audio\Monkey’s Audio.exe

TOC извлечённого CD

Трек | Старт | Длительность | Начальный сектор | Конечный сектор
———————————————————————
1 | 0:00.00 | 0:19.33 | 0 | 1457
2 | 0:19.33 | 3:37.23 | 1458 | 17755
3 | 3:56.56 | 1:44.42 | 17756 | 25597
4 | 5:41.23 | 3:40.65 | 25598 | 42162
5 | 9:22.13 | 3:25.28 | 42163 | 57565
6 | 12:47.41 | 2:06.11 | 57566 | 67026
7 | 14:53.52 | 2:30.48 | 67027 | 78324
8 | 17:24.25 | 1:08.62 | 78325 | 83486
9 | 18:33.12 | 3:07.67 | 83487 | 97578
10 | 21:41.04 | 2:34.49 | 97579 | 109177
11 | 24:15.53 | 1:42.72 | 109178 | 116899
12 | 25:58.50 | 2:48.27 | 116900 | 129526
13 | 28:47.02 | 4:52.60 | 129527 | 151486
14 | 33:39.62 | 2:04.64 | 151487 | 160850
15 | 35:44.51 | 2:34.38 | 160851 | 172438
16 | 38:19.14 | 0:27.58 | 172439 | 174521
17 | 38:46.72 | 3:29.22 | 174522 | 190218
18 | 42:16.19 | 1:43.12 | 190219 | 197955
19 | 43:59.31 | 3:00.00 | 197956 | 211455
20 | 46:59.31 | 3:22.32 | 211456 | 226637

Характеристики диапазона извлечения и сообщения об ошибках

Выбранный диапазон

Имя файла C:\EAC\The Toy Dolls – A Far out Disc.wav

Пиковый уровень 97.7 %
Качество диапазона 100.0 %
CRC копии 0F763E5D
Копирование… OK

Ошибок не произошло

Конец отчёта

REM GENRE “Punk Rock”
REM DATE 1985
REM DISCID F40BCD14
REM COMMENT “ExactAudioCopy v0.99pb4”
PERFORMER “The Toy Dolls”
TITLE “A Far out Disc”
FILE “The Toy Dolls – A Far out Disc.ape” WAVE
TRACK 01 AUDIO
TITLE “A Far Out Theme Tune”
PERFORMER “The Toy Dolls”
INDEX 01 00:00:00
TRACK 02 AUDIO
TITLE “She Goes to Finos”
PERFORMER “The Toy Dolls”
INDEX 01 00:19:33
TRACK 03 AUDIO
TITLE “Razzmatazz Intro”
PERFORMER “The Toy Dolls”
INDEX 01 03:56:56
TRACK 04 AUDIO
TITLE “Modern School of Motoring”
PERFORMER “The Toy Dolls”
INDEX 01 05:41:23
TRACK 05 AUDIO
TITLE “Carol Dodd is Pregnant”
PERFORMER “The Toy Dolls”
INDEX 01 09:22:13
TRACK 06 AUDIO
TITLE “You and a box of handkerchiefs”
PERFORMER “The Toy Dolls”
INDEX 01 12:47:41
TRACK 07 AUDIO
TITLE “Bless you my Son”
PERFORMER “The Toy Dolls”
INDEX 01 14:53:52
TRACK 08 AUDIO
TITLE “My girlfriend’s dad is a vicar”
PERFORMER “The Toy Dolls”
INDEX 01 17:24:25
TRACK 09 AUDIO
TITLE “Come Back Jackie”
PERFORMER “The Toy Dolls”
INDEX 01 18:33:12
TRACK 10 AUDIO
TITLE “Do you want to finish… or what ?!”
PERFORMER “The Toy Dolls”
INDEX 01 21:41:04
TRACK 11 AUDIO
TITLE “Commercial Break”
PERFORMER “The Toy Dolls”
INDEX 01 24:15:53
TRACK 12 AUDIO
TITLE “Chartbuster/Razzmatazz Outro”
PERFORMER “The Toy Dolls”
INDEX 01 25:58:50
TRACK 13 AUDIO
TITLE “We are mad”
PERFORMER “The Toy Dolls”
INDEX 01 28:47:02
TRACK 14 AUDIO
TITLE “Wipe Out”
PERFORMER “The Toy Dolls”
INDEX 01 33:39:62
TRACK 15 AUDIO
TITLE “Florence is deaf (But there’s no need to Shout)”
PERFORMER “The Toy Dolls”
INDEX 01 35:44:51
TRACK 16 AUDIO
TITLE “A far out Theme Tune”
PERFORMER “The Toy Dolls”
INDEX 01 38:19:14
TRACK 17 AUDIO
TITLE “Deidree is a slag”
PERFORMER “The Toy Dolls”
INDEX 01 38:46:72
TRACK 18 AUDIO
TITLE “Ruppert the bear”
PERFORMER “The Toy Dolls”
INDEX 01 42:16:19
TRACK 19 AUDIO
TITLE “Nellie the Elefant (1984 version)”
PERFORMER “The Toy Dolls”
INDEX 01 43:59:31
TRACK 20 AUDIO
TITLE “Fisticuffs in Frederick Street”
PERFORMER “The Toy Dolls”
INDEX 01 46:59:31


Leave a Reply

Your email address will not be published. Required fields are marked *

This site uses Akismet to reduce spam. Learn how your comment data is processed.