Toxoplasma – Toxoplasma




No Cover available

Artist: Toxoplasma
Year: 1983/1989
Genre: Punk
Notes: Discogs
Add. Notes:
Watch Songs on: YouTube
Cover incl.: Yes
Encoder: FLAC
Bitrate: ~1100 kBit/s (44.1 kHz/16 Bit/s)
Log & Cue incl.: Yes
Size: 226,6 MB
Password: “slam” (without ” “)


All Downloads/Hosters are compatible

Download 1
KatFile.com
Turbobit.net
Rapidgator.net
Download 2
KatFile.com
Turbobit.net
Rapidgator.net

Tracklist:

1 - Vakuum - 2:00
2 - S.O.S. - 1:35
3 - Stefan's - 2:05
4 - 1981 - 1:35
5 - Ordinäre Liebe - 1:40
6 - Träumer - 2:05
7 - Asozial - 2:15
8 - Führer - 1:45
9 - Polizeistaat - 2:00
10 - Pass Dich An - 1:20
11 - Danke - 1:20
12 - Teenage Frust - 1:20
13 - Heile Welt - 1:30
14 - Hardrockgerät - 2:00
15 - Weltverbesserer - 1:15
16 - Wir Warten Auf Dich - 4:05

EAC-Log, CUE-Sheed & NFO:

Click to open spoiler
REM DISCID C106F710
REM COMMENT ExactAudioCopy v0.99pb5
PERFORMER “”
TITLE “”
FILE “Toxoplasma – Toxoplasma.flac” WAVE
TRACK 01 AUDIO
TITLE “Track01”
INDEX 01 00:00:00
TRACK 02 AUDIO
TITLE “Track02”
INDEX 01 01:56:09
TRACK 03 AUDIO
TITLE “Track03”
INDEX 01 03:44:17
TRACK 04 AUDIO
TITLE “Track04”
INDEX 01 05:42:12
TRACK 05 AUDIO
TITLE “Track05”
INDEX 01 07:24:05
TRACK 06 AUDIO
TITLE “Track06”
INDEX 01 09:04:57
TRACK 07 AUDIO
TITLE “Track07”
INDEX 01 11:07:43
TRACK 08 AUDIO
TITLE “Track08”
INDEX 01 13:18:64
TRACK 09 AUDIO
TITLE “Track09”
INDEX 01 15:01:50
TRACK 10 AUDIO
TITLE “Track10”
INDEX 01 17:00:13
TRACK 11 AUDIO
TITLE “Track11”
INDEX 01 18:16:40
TRACK 12 AUDIO
TITLE “Track12”
REM DATE
INDEX 01 19:36:09
TRACK 13 AUDIO
TITLE “Track13”
INDEX 01 20:55:45
TRACK 14 AUDIO
TITLE “Track14”
INDEX 01 22:20:24
TRACK 15 AUDIO
TITLE “Track15”
INDEX 01 24:22:16
TRACK 16 AUDIO
TITLE “Track16”
INDEX 01 25:38:16

Leave a Reply

Your email address will not be published. Required fields are marked *

This site uses Akismet to reduce spam. Learn how your comment data is processed.