Theory of a Deadman – Wake Up Call




[Total: 0    Average: 0/5]

Artist: Theory of a Deadman
Year: 2017
Genre: Rock
Notes: Discogs
Add. Notes:
Cover incl.: No
Encoder: FLAC
Bitrate: ~900 kBit/s (44.1 kHz/16 Bit/s)
Log & Cue incl.: Yes
Size: 253,82 MB
Password: “slam” (without ” “)


All Downloads/Hosters are compatible

Download 1
Share-online.biz
KatFile.com
Rapidgator.net
Mexa.sh
Download 2
Share-online.biz
KatFile.com
Rapidgator.net
Mexa.sh

Tracklist:

1. Straight Jacket
2. Rx
3. Echoes
4. Wake Up Call
5. PCH
6. G.O.A.T
7. Loner
8. Time Machine
9. Glass Jaw
10. PO Mouth
11. Wicked Game

EAC-Log, CUE-Sheed & NFO:

Click to open spoiler
REM COMMENT Declipped, decompressed version
REM GENRE “Pop Rock”
REM DATE 2017
REM COMMENT Released: 27 Oct 2017
REM LABEL “Atlantic ‎– none”
REM FORMAT “Web, Album”
REM URL http://rutracker.org/forum/viewtopic.php?t=5471751
PERFORMER “Theory of a Deadman”
TITLE “Wake Up Call”
FILE “01. Straight Jacket.flac” WAVE
TRACK 01 AUDIO
PERFORMER “Theory of a Deadman”
TITLE “Straight Jacket”
INDEX 01 00:00:00
FILE “02. Rx (Medicate).flac” WAVE
TRACK 02 AUDIO
PERFORMER “Theory of a Deadman”
TITLE “Rx (Medicate)”
INDEX 01 00:00:00
FILE “03. Echoes.flac” WAVE
TRACK 03 AUDIO
PERFORMER “Theory of a Deadman”
TITLE “Echoes”
INDEX 01 00:00:00
FILE “04. Wake Up Call.flac” WAVE
TRACK 04 AUDIO
PERFORMER “Theory of a Deadman”
TITLE “Wake Up Call”
INDEX 01 00:00:00
FILE “05. PCH.flac” WAVE
TRACK 05 AUDIO
PERFORMER “Theory of a Deadman”
TITLE “PCH”
INDEX 01 00:00:00
FILE “06. G.O.A.T.flac” WAVE
TRACK 06 AUDIO
PERFORMER “Theory of a Deadman”
TITLE “G.O.A.T”
INDEX 01 00:00:00
FILE “07. Loner.flac” WAVE
TRACK 07 AUDIO
PERFORMER “Theory of a Deadman”
TITLE “Loner”
INDEX 01 00:00:00
FILE “08. Time Machine.flac” WAVE
TRACK 08 AUDIO
PERFORMER “Theory of a Deadman”
TITLE “Time Machine”
INDEX 01 00:00:00
FILE “09. Glass Jaw.flac” WAVE
TRACK 09 AUDIO
PERFORMER “Theory of a Deadman”
TITLE “Glass Jaw”
INDEX 01 00:00:00
FILE “10. Po Mouth.flac” WAVE
TRACK 10 AUDIO
PERFORMER “Theory of a Deadman”
TITLE “Po Mouth”
INDEX 01 00:00:00
FILE “11. Wicked Game [Chris Isaak cover].flac” WAVE
TRACK 11 AUDIO
PERFORMER “Theory of a Deadman”
TITLE “Wicked Game [Chris Isaak cover]”
INDEX 01 00:00:00

Spread the Download

Leave a Reply

Your email address will not be published. Required fields are marked *

Enter the text from the image below
 

This site uses Akismet to reduce spam. Learn how your comment data is processed.