Theory of a Deadman – The Truth Is… (Special Edition)




Artist: Theory of a Deadman
Year: 2011
Genre: Rock
Notes: Discogs
Add. Notes: Special Edition
Cover incl.: No
Encoder: FLAC
Bitrate: ~1000 kBit/s (44.1 kHz/16 Bit/s)
Log & Cue incl.: Yes
Size: 480,1 MB
Password: “slam” (without ” “)


All Downloads/Hosters are compatible

Download 1
KatFile.com
Turbobit.net
FileFactory.com
Rapidgator.net
Download 2
KatFile.com
Turbobit.net
FileFactory.com
Rapidgator.net

Tracklist:

1 Lowlife 
2 Bitch Came Back 
3 Hurricane 
4 Out Of My Head 
5 Gentleman 
6 Love Is Hell 
7 The Truth Is... (I Lied About Everything) 
8 Head Above Water 
9 Drag Me To Hell 
10 What Was I Thinking 
11 Easy To Love You 
12 We Were Men 
Bonus Tracks
13 Careless 
14 Does It Really Matter 
15 Villain 
16 Better Or Worse 
17 Out Of My Head (Acoustic) 
18 Easy To Love You (Acoustic)

EAC-Log, CUE-Sheed & NFO:

Click to open spoiler
REM COMMENT “Declipped, decompressed version”
REM GENRE “Post-Grunge, Hard Rock”
REM DATE 2011
REM COMMENT “Released: 2011”
REM LABEL “Roadrunner Records ‎– RR-7729-5”
REM FORMAT “CD, Album”
PERFORMER “Theory of a Deadman”
TITLE “The Truth Is…”
FILE “01. Lowlife.flac” WAVE
TRACK 01 AUDIO
PERFORMER “Theory of a Deadman”
TITLE “Lowlife”
INDEX 01 00:00:00
FILE “02. Bitch Came Back.flac” WAVE
TRACK 02 AUDIO
PERFORMER “Theory of a Deadman”
TITLE “Bitch Came Back”
INDEX 01 00:00:00
FILE “03. Hurricane.flac” WAVE
TRACK 03 AUDIO
PERFORMER “Theory of a Deadman”
TITLE “Hurricane”
INDEX 01 00:00:00
FILE “04. Out of My Head.flac” WAVE
TRACK 04 AUDIO
PERFORMER “Theory of a Deadman”
TITLE “Out of My Head”
INDEX 01 00:00:00
FILE “05. Gentleman.flac” WAVE
TRACK 05 AUDIO
PERFORMER “Theory of a Deadman”
TITLE “Gentleman”
INDEX 01 00:00:00
FILE “06. Love Is Hell.flac” WAVE
TRACK 06 AUDIO
PERFORMER “Theory of a Deadman”
TITLE “Love Is Hell”
INDEX 01 00:00:00
FILE “07. The Truth Is…(I Lied About Everything).flac” WAVE
TRACK 07 AUDIO
PERFORMER “Theory of a Deadman”
TITLE “The Truth Is… (I Lied About Everything)”
INDEX 01 00:00:00
FILE “08. Head Above Water.flac” WAVE
TRACK 08 AUDIO
PERFORMER “Theory of a Deadman”
TITLE “Head Above Water”
INDEX 01 00:00:00
FILE “09. Drag Me to Hell.flac” WAVE
TRACK 09 AUDIO
PERFORMER “Theory of a Deadman”
TITLE “Drag Me to Hell”
INDEX 01 00:00:00
FILE “10. What Was I Thinking.flac” WAVE
TRACK 10 AUDIO
PERFORMER “Theory of a Deadman”
TITLE “What Was I Thinking”
INDEX 01 00:00:00
FILE “11. Easy to Love You.flac” WAVE
TRACK 11 AUDIO
PERFORMER “Theory of a Deadman”
TITLE “Easy to Love You”
INDEX 01 00:00:00
FILE “12. We Were Men.flac” WAVE
TRACK 12 AUDIO
PERFORMER “Theory of a Deadman”
TITLE “We Were Men”
INDEX 01 00:00:00
FILE “13. Careless [bonus track].flac” WAVE
TRACK 13 AUDIO
PERFORMER “Theory of a Deadman”
TITLE “Careless [bonus track]”
INDEX 01 00:00:00
FILE “14. Does It Really Matter [bonus track].flac” WAVE
TRACK 14 AUDIO
PERFORMER “Theory of a Deadman”
TITLE “Does It Really Matter [bonus track]”
INDEX 01 00:00:00
FILE “15. Villain [bonus track].flac” WAVE
TRACK 15 AUDIO
PERFORMER “Theory of a Deadman”
TITLE “Villain [bonus track]”
INDEX 01 00:00:00
FILE “16. Better or Worse [bonus track].flac” WAVE
TRACK 16 AUDIO
PERFORMER “Theory of a Deadman”
TITLE “Better or Worse [bonus track]”
INDEX 01 00:00:00
FILE “17. Out of My Head [acoustic] [bonus track].flac” WAVE
TRACK 17 AUDIO
PERFORMER “Theory of a Deadman”
TITLE “Out of My Head [acoustic] [bonus track]”
INDEX 01 00:00:00
FILE “18. Easy to Love You [acoustic] [bonus track].flac” WAVE
TRACK 18 AUDIO
PERFORMER “Theory of a Deadman”
TITLE “Easy to Love You [acoustic] [bonus track]”
INDEX 01 00:00:00

Leave a Reply

Your email address will not be published. Required fields are marked *

Enter the text from the image below
 

This site uses Akismet to reduce spam. Learn how your comment data is processed.