Theory of a Deadman – Scars & Souvenirs (Special Edition)




Artist: Theory of a Deadman
Year: 2008
Genre: Rock
Notes: Discogs
Add. Notes: Special Edition
Cover incl.: No
Encoder: FLAC
Bitrate: ~1000 kBit/s (44.1 kHz/16 Bit/s)
Log & Cue incl.: Yes
Size: 456,9 MB
Password: “slam” (without ” “)


All Downloads/Hosters are compatible

Download 1
KatFile.com
Turbobit.net
FileFactory.com
Rapidgator.net
Download 2
KatFile.com
Turbobit.net
FileFactory.com
Rapidgator.net

Tracklist:

1 So Happy 
2 By The Way 
3 Got It Made 
4 Not Meant To Be 
5 Crutch 
6 All Or Nothing 
7 Heaven (Little By Little) 
8 Bad Girlfriend 
9 Hate My Life 
10 Little Smirk 
11 End Of The Summer 
12 Wait For Me 
13 Sacrifice 
14 Great Pretender 
15 Shadow 
16 So Happy 
17 By The Way [Acoustic] 
18 Not Meant To Be [Acoustic]

EAC-Log, CUE-Sheed & NFO:

Click to open spoiler
REM COMMENT “Declipped, decompressed version”
REM GENRE “Post-Grunge, Hard Rock”
REM DATE 2008
REM COMMENT “Released: 20 Oct 2009”
REM LABEL “Roadrunner Records ‎– 1686-180095”
REM FORMAT “CD, Album”
PERFORMER “Theory of a Deadman”
TITLE “Scars & Souvenirs”
FILE “01. So Happy.flac” WAVE
TRACK 01 AUDIO
PERFORMER “Theory of a Deadman”
TITLE “So Happy”
INDEX 01 00:00:00
FILE “02. By the Way.flac” WAVE
TRACK 02 AUDIO
PERFORMER “Theory of a Deadman”
TITLE “By the Way”
INDEX 01 00:00:00
FILE “03. Got It Made.flac” WAVE
TRACK 03 AUDIO
PERFORMER “Theory of a Deadman”
TITLE “Got It Made”
INDEX 01 00:00:00
FILE “04. Not Meant to Be.flac” WAVE
TRACK 04 AUDIO
PERFORMER “Theory of a Deadman”
TITLE “Not Meant to Be”
INDEX 01 00:00:00
FILE “05. Crutch.flac” WAVE
TRACK 05 AUDIO
PERFORMER “Theory of a Deadman”
TITLE “Crutch”
INDEX 01 00:00:00
FILE “06. All or Nothing.flac” WAVE
TRACK 06 AUDIO
PERFORMER “Theory of a Deadman”
TITLE “All or Nothing”
INDEX 01 00:00:00
FILE “07. Heaven (Little by Little).flac” WAVE
TRACK 07 AUDIO
PERFORMER “Theory of a Deadman”
TITLE “Heaven (Little by Little)”
INDEX 01 00:00:00
FILE “08. Bad Girlfriend.flac” WAVE
TRACK 08 AUDIO
PERFORMER “Theory of a Deadman”
TITLE “Bad Girlfriend”
INDEX 01 00:00:00
FILE “09. Hate My Life.flac” WAVE
TRACK 09 AUDIO
PERFORMER “Theory of a Deadman”
TITLE “Hate My Life”
INDEX 01 00:00:00
FILE “10. Little Smirk.flac” WAVE
TRACK 10 AUDIO
PERFORMER “Theory of a Deadman”
TITLE “Little Smirk”
INDEX 01 00:00:00
FILE “11. End of the Summer.flac” WAVE
TRACK 11 AUDIO
PERFORMER “Theory of a Deadman”
TITLE “End of the Summer”
INDEX 01 00:00:00
FILE “12. Wait for Me.flac” WAVE
TRACK 12 AUDIO
PERFORMER “Theory of a Deadman”
TITLE “Wait for Me”
INDEX 01 00:00:00
FILE “13. Sacrifice.flac” WAVE
TRACK 13 AUDIO
PERFORMER “Theory of a Deadman”
TITLE “Sacrifice”
INDEX 01 00:00:00
FILE “14. Great Pretender [bonus track].flac” WAVE
TRACK 14 AUDIO
PERFORMER “Theory of a Deadman”
TITLE “Great Pretender [bonus track]”
INDEX 01 00:00:00
FILE “15. Shadow [bonus track].flac” WAVE
TRACK 15 AUDIO
PERFORMER “Theory of a Deadman”
TITLE “Shadow [bonus track]”
INDEX 01 00:00:00
FILE “16. So Happy [acoustic] [bonus track].flac” WAVE
TRACK 16 AUDIO
PERFORMER “Theory of a Deadman”
TITLE “So Happy [acoustic] [bonus track]”
INDEX 01 00:00:00
FILE “17. By the Way [acoustic] [bonus track].flac” WAVE
TRACK 17 AUDIO
PERFORMER “Theory of a Deadman”
TITLE “By the Way [acoustic] [bonus track]”
INDEX 01 00:00:00
FILE “18. Not Meant to Be [acoustic] [bonus track].flac” WAVE
TRACK 18 AUDIO
PERFORMER “Theory of a Deadman”
TITLE “Not Meant to Be [acoustic] [bonus track]”
INDEX 01 00:00:00

Leave a Reply

Your email address will not be published. Required fields are marked *

This site uses Akismet to reduce spam. Learn how your comment data is processed.