Theory of a Deadman – Savages




[Total: 0    Average: 0/5]

Artist: Theory of a Deadman
Year: 2014
Genre: Rock
Notes: Discogs
Add. Notes:
Cover incl.: Yes
Encoder: FLAC
Bitrate: ~1000 kBit/s (44.1 kHz/16 Bit/s)
Log & Cue incl.: Yes
Size: 323 MB
Password: “slam” (without ” “)


All Downloads/Hosters are compatible

Download 1
Share-online.biz
KatFile.com
Rapidgator.net
Mexa.sh
Download 2
Share-online.biz
KatFile.com
Rapidgator.net
Mexa.sh

Tracklist:

1 - Drown - 3:42
2 - Blow - 3:36
3 - Savages - 3:33
4 - Misery of Mankind - 3:24
5 - Salt in the Wound - 3:38
6 - Angel - 3:22
7 - Heavy - 3:03
8 - Panic Room - 3:14
9 - The One - 3:58
10 - Livin' My Life Like A Country 
Song - 3:20
11 - World War Me - 3:15
12 - In Ruins - 3:19
13 - The Sun Has Set On Me - 5:21

EAC-Log, CUE-Sheed & NFO:

Click to open spoiler
REM COMMENT “Declipped, decompressed version”
REM GENRE “Post-Grunge, Hard Rock”
REM DATE 2014
REM COMMENT “Released: 29 Jul 2014”
REM LABEL “Roadrunner Records ‎– 1686-175632”
REM FORMAT “CD, Album”
PERFORMER “Theory of a Deadman”
TITLE “Savages”
FILE “01. Drown.flac” WAVE
TRACK 01 AUDIO
PERFORMER “Theory of a Deadman”
TITLE “Drown”
INDEX 01 00:00:00
FILE “02. Blow.flac” WAVE
TRACK 02 AUDIO
PERFORMER “Theory of a Deadman”
TITLE “Blow”
INDEX 01 00:00:00
FILE “03. Savages [feat. Alice Cooper].flac” WAVE
TRACK 03 AUDIO
PERFORMER “Theory of a Deadman”
TITLE “Savages [feat. Alice Cooper]”
INDEX 01 00:00:00
FILE “04. Misery of Mankind.flac” WAVE
TRACK 04 AUDIO
PERFORMER “Theory of a Deadman”
TITLE “Misery of Mankind”
INDEX 01 00:00:00
FILE “05. Salt in the Wound.flac” WAVE
TRACK 05 AUDIO
PERFORMER “Theory of a Deadman”
TITLE “Salt in the Wound”
INDEX 01 00:00:00
FILE “06. Angel.flac” WAVE
TRACK 06 AUDIO
PERFORMER “Theory of a Deadman”
TITLE “Angel”
INDEX 01 00:00:00
FILE “07. Heavy.flac” WAVE
TRACK 07 AUDIO
PERFORMER “Theory of a Deadman”
TITLE “Heavy”
INDEX 01 00:00:00
FILE “08. Panic Room.flac” WAVE
TRACK 08 AUDIO
PERFORMER “Theory of a Deadman”
TITLE “Panic Room”
INDEX 01 00:00:00
FILE “09. The One.flac” WAVE
TRACK 09 AUDIO
PERFORMER “Theory of a Deadman”
TITLE “The One”
INDEX 01 00:00:00
FILE “10. Livin’ My Life Like a Country Song [feat. Joe Don Rooney].flac” WAVE
TRACK 10 AUDIO
PERFORMER “Theory of a Deadman”
TITLE “Livin’ My Life Like a Country Song [feat. Joe Don Rooney]”
INDEX 01 00:00:00
FILE “11. World War Me.flac” WAVE
TRACK 11 AUDIO
PERFORMER “Theory of a Deadman”
TITLE “World War Me”
INDEX 01 00:00:00
FILE “12. In Ruins.flac” WAVE
TRACK 12 AUDIO
PERFORMER “Theory of a Deadman”
TITLE “In Ruins”
INDEX 01 00:00:00
FILE “13. The Sun Has Set On Me.flac” WAVE
TRACK 13 AUDIO
PERFORMER “Theory of a Deadman”
TITLE “The Sun Has Set On Me”
INDEX 01 00:00:00

Spread the Download

Leave a Reply

Your email address will not be published. Required fields are marked *

Enter the text from the image below
 

This site uses Akismet to reduce spam. Learn how your comment data is processed.