Theory of a Deadman – Gasoline (Special Edition)




Artist: Theory of a Deadman
Year: 2005/2009
Genre: Rock
Notes: Discogs
Add. Notes: Special Edition
Cover incl.: Yes
Encoder: FLAC
Bitrate: ~900 kBit/s (44.1 kHz/16 Bit/s)
Log & Cue incl.: Yes
Size: 393,6 MB
Password: “slam” (without ” “)


All Downloads/Hosters are compatible

Download 1
KatFile.com
Turbobit.net
FileFactory.com
Rapidgator.net
Download 2
KatFile.com
Turbobit.net
FileFactory.com
Rapidgator.net

Tracklist:

1 - Hating Hollywood - 3:25
2 - No Way Out - 3:29
3 - No Surprise - 3:40
4 - Quiver - 2:51
5 - Santa Monica - 4:07
6 - Better Off - 2:51
7 - Say Goodbye - 3:05
8 - Hello Lonely (Walk Away From This) - 4:22
9 - Me & My Girl - 3:40
10 - Since You've Been Gone - 4:19
11 - Hell Just Ain't The Same - 1:05
12 - Save The Best For Last - 4:15
13 - In The Middle - 3:36
Bonus Tracks:
14 - Lynchburg Lemonade (Southern Days) - 3:32
15 - Got Me Wrong - 4:28
16 - What's Your Name - 3:29

EAC-Log, CUE-Sheed & NFO:

Click to open spoiler
REM COMMENT “Declipped, decompressed version”
REM GENRE “Post-Grunge, Hard Rock”
REM DATE 2005
REM COMMENT “Released: 29 Mar 2005”
REM LABEL “604 Records ‎– 2539600062”
REM FORMAT “CD, Album”
PERFORMER “Theory of a Deadman”
TITLE “Gasoline”
FILE “01. Hating Hollywood.flac” WAVE
TRACK 01 AUDIO
PERFORMER “Theory of a Deadman”
TITLE “Hating Hollywood”
INDEX 01 00:00:00
FILE “02. No Way Out.flac” WAVE
TRACK 02 AUDIO
PERFORMER “Theory of a Deadman”
TITLE “No Way Out”
INDEX 01 00:00:00
FILE “03. No Surprise.flac” WAVE
TRACK 03 AUDIO
PERFORMER “Theory of a Deadman”
TITLE “No Surprise”
INDEX 01 00:00:00
FILE “04. Quiver.flac” WAVE
TRACK 04 AUDIO
PERFORMER “Theory of a Deadman”
TITLE “Quiver”
INDEX 01 00:00:00
FILE “05. Santa Monica.flac” WAVE
TRACK 05 AUDIO
PERFORMER “Theory of a Deadman”
TITLE “Santa Monica”
INDEX 01 00:00:00
FILE “06. Better Off.flac” WAVE
TRACK 06 AUDIO
PERFORMER “Theory of a Deadman”
TITLE “Better Off”
INDEX 01 00:00:00
FILE “07. Say Goodbye.flac” WAVE
TRACK 07 AUDIO
PERFORMER “Theory of a Deadman”
TITLE “Say Goodbye”
INDEX 01 00:00:00
FILE “08. Hello Lonely (Walk Away from This).flac” WAVE
TRACK 08 AUDIO
PERFORMER “Theory of a Deadman”
TITLE “Hello Lonely (Walk Away from This)”
INDEX 01 00:00:00
FILE “09. Me & My Girl.flac” WAVE
TRACK 09 AUDIO
PERFORMER “Theory of a Deadman”
TITLE “Me & My Girl”
INDEX 01 00:00:00
FILE “10. Since You’ve Been Gone.flac” WAVE
TRACK 10 AUDIO
PERFORMER “Theory of a Deadman”
TITLE “Since You’ve Been Gone”
INDEX 01 00:00:00
FILE “11. Hell Just Ain’t the Same.flac” WAVE
TRACK 11 AUDIO
PERFORMER “Theory of a Deadman”
TITLE “Hell Just Ain’t the Same”
INDEX 01 00:00:00
FILE “12. Save the Best for Last.flac” WAVE
TRACK 12 AUDIO
PERFORMER “Theory of a Deadman”
TITLE “Save the Best for Last”
INDEX 01 00:00:00
FILE “13. In the Middle.flac” WAVE
TRACK 13 AUDIO
PERFORMER “Theory of a Deadman”
TITLE “In the Middle”
INDEX 01 00:00:00
FILE “14. Lynchburg Lemonade (Southern Days) [bonus track].flac” WAVE
TRACK 14 AUDIO
PERFORMER “Theory of a Deadman”
TITLE “Lynchburg Lemonade (Southern Days) [bonus track]”
INDEX 01 00:00:00
FILE “15. Got Me Wrong [Alice in Chains cover] [bonus track].flac” WAVE
TRACK 15 AUDIO
PERFORMER “Theory of a Deadman”
TITLE “Got Me Wrong [Alice in Chains cover] [bonus track]”
INDEX 01 00:00:00
FILE “16. What’s Your Name [Lynyrd Skynyrd Cover] [bonus track].flac” WAVE
TRACK 16 AUDIO
PERFORMER “Theory of a Deadman”
TITLE “What’s Your Name [Lynyrd Skynyrd Cover] [bonus track]”
INDEX 01 00:00:00

Leave a Reply

Your email address will not be published. Required fields are marked *

Enter the text from the image below
 

This site uses Akismet to reduce spam. Learn how your comment data is processed.