The Who – Who’s Next (Remastered Deluxe Edition)




Artist: The Who
Year: 1971/2003
Genre: Rock
Notes: Discogs
Add. Notes: Remastered Deluxe Edition
Cover incl.: Yes
Encoder: FLAC
Bitrate: ~900 kBit/s (44.1 kHz/16 Bit/s)
Log & Cue incl.: Yes
Size: 1026,2 MB
Password: “slam” (without ” “)


All Downloads/Hosters are compatible

Download 1
KatFile.com
Turbobit.net
FileFactory.com
Rapidgator.net
Download 2
KatFile.com
Turbobit.net
FileFactory.com
Rapidgator.net

Tracklist:

The Original Album
1-1 Baba O'Riley 4:58
1-2 Bargain 5:33
1-3 Love Ain't For Keeping 2:10
1-4 My Wife 3:33
1-5 The Song Is Over 6:16
1-6 Getting In Tune 4:48
1-7 Going Mobile 3:42
1-8 Behind Blue Eyes 3:41
1-9 Won't Get Fooled Again 8:31
New York Record Plant Session
1-10 Baby Don't You Do It 8:20
1-11 Getting In Tune 6:33
1-12 Pure And Easy 4:31
1-13 Love Ain't For Keeping 4:03
1-14 Behind Blue Eyes 3:28
1-15 Won't Get Fooled Again 8:46

The Young Vic - Live
2-1 Love Ain't For Keeping 2:56
2-2 Pure And Easy 6:00
2-3 Young Man Blues 4:47
2-4 Time Is Passing 3:59
2-5 Behind Blue Eyes 4:49
2-6 I Don't Even Know Myself 5:42
2-7 Too Much Of Anything 4:20
2-8 Getting In Tune 6:42
2-9 Bargain 5:46
2-10 Water 8:19
2-11 My Generation 2:58
2-12 (I'm A) Road Runner 3:14
2-13 Naked Eye 6:21
2-14 Won't Get Fooled Again 8:48

EAC-Log, CUE-Sheed & NFO:

Click to open spoiler
Exact Audio Copy V0.99 prebeta 4 from 23. January 2008

EAC extraction logfile from 5. July 2008, 15:25

The Who / Who’s Next (2003 Deluxe Edition – Disc 1)

Used drive : HL-DT-STDVDRAM GSA-T20N Adapter: 1 ID: 0

Read mode : Secure
Utilize accurate stream : Yes
Defeat audio cache : Yes
Make use of C2 pointers : No

Read offset correction : 667
Overread into Lead-In and Lead-Out : No
Fill up missing offset samples with silence : Yes
Delete leading and trailing silent blocks : No
Null samples used in CRC calculations : Yes
Used interface : Installed external ASPI interface

Used output format : Internal WAV Routines
Sample format : 44.100 Hz; 16 Bit; Stereo

TOC of the extracted CD

Track | Start | Length | Start sector | End sector
———————————————————
1 | 0:00.00 | 5:01.21 | 0 | 22595
2 | 5:01.21 | 5:33.55 | 22596 | 47625
3 | 10:35.01 | 2:10.54 | 47626 | 57429
4 | 12:45.55 | 3:35.71 | 57430 | 73625
5 | 16:21.51 | 6:17.72 | 73626 | 101972
6 | 22:39.48 | 4:49.45 | 101973 | 123692
7 | 27:29.18 | 3:43.50 | 123693 | 140467
8 | 31:12.68 | 3:42.73 | 140468 | 157190
9 | 34:55.66 | 8:35.73 | 157191 | 195888
10 | 43:31.64 | 8:21.58 | 195889 | 233521
11 | 51:53.47 | 6:36.39 | 233522 | 263260
12 | 58:30.11 | 4:33.64 | 263261 | 283799
13 | 63:04.00 | 4:06.45 | 283800 | 302294
14 | 67:10.45 | 3:30.69 | 302295 | 318113
15 | 70:41.39 | 8:48.44 | 318114 | 357757

Range status and errors

Selected range

Filename The Who – Who’s Next (2003 Deluxe Edition – Disc 1).wav

Peak level 100.0 %
Range quality 99.9 %
Copy CRC 5D4C5808
Copy OK

No errors occurred

AccurateRip summary

Track 1 accurately ripped (confidence 53) [22CE86B9]
Track 2 accurately ripped (confidence 55) [FB1F1E75]
Track 3 accurately ripped (confidence 56) [F53CA71F]
Track 4 accurately ripped (confidence 54) [70C5081E]
Track 5 accurately ripped (confidence 54) [D60FFF23]
Track 6 accurately ripped (confidence 56) [41A51786]
Track 7 accurately ripped (confidence 56) [81B17382]
Track 8 accurately ripped (confidence 55) [0DC53466]
Track 9 accurately ripped (confidence 55) [FE69A988]
Track 10 accurately ripped (confidence 53) [7DC02FE9]
Track 11 accurately ripped (confidence 55) [2B220EC0]
Track 12 accurately ripped (confidence 55) [62F6B192]
Track 13 accurately ripped (confidence 53) [33984814]
Track 14 accurately ripped (confidence 55) [5797882A]
Track 15 accurately ripped (confidence 50) [6954961D]

All tracks accurately ripped

End of status report

Exact Audio Copy V0.99 prebeta 4 from 23. January 2008

EAC extraction logfile from 5. July 2008, 16:57

The Who / Who’s Next (2003 Deluxe Edition – Disc 2)

Used drive : HL-DT-STDVDRAM GSA-T20N Adapter: 1 ID: 0

Read mode : Secure
Utilize accurate stream : Yes
Defeat audio cache : Yes
Make use of C2 pointers : No

Read offset correction : 667
Overread into Lead-In and Lead-Out : No
Fill up missing offset samples with silence : Yes
Delete leading and trailing silent blocks : No
Null samples used in CRC calculations : Yes
Used interface : Installed external ASPI interface

Used output format : Internal WAV Routines
Sample format : 44.100 Hz; 16 Bit; Stereo

TOC of the extracted CD

Track | Start | Length | Start sector | End sector
———————————————————
1 | 0:00.00 | 2:57.48 | 0 | 13322
2 | 2:57.48 | 6:00.50 | 13323 | 40372
3 | 8:58.23 | 4:47.69 | 40373 | 61966
4 | 13:46.17 | 3:59.09 | 61967 | 79900
5 | 17:45.26 | 4:49.32 | 79901 | 101607
6 | 22:34.58 | 5:42.40 | 101608 | 127297
7 | 28:17.23 | 4:20.66 | 127298 | 146863
8 | 32:38.14 | 6:42.08 | 146864 | 177021
9 | 39:20.22 | 5:46.24 | 177022 | 202995
10 | 45:06.46 | 8:19.71 | 202996 | 240491
11 | 53:26.42 | 2:58.21 | 240492 | 253862
12 | 56:24.63 | 3:14.23 | 253863 | 268435
13 | 59:39.11 | 6:21.62 | 268436 | 297072
14 | 66:00.73 | 8:50.41 | 297073 | 336863

Range status and errors

Selected range

Filename The Who – Who’s Next (2003 Deluxe Edition – Disc 2).wav

Peak level 98.4 %
Range quality 99.9 %
Copy CRC 28FF59FB
Copy OK

No errors occurred

AccurateRip summary

Track 1 accurately ripped (confidence 31) [9E52E965]
Track 2 accurately ripped (confidence 32) [E33645A9]
Track 3 accurately ripped (confidence 32) [617FB844]
Track 4 accurately ripped (confidence 31) [7901D30E]
Track 5 accurately ripped (confidence 32) [A81131B3]
Track 6 accurately ripped (confidence 31) [032FDD48]
Track 7 accurately ripped (confidence 32) [D1725574]
Track 8 accurately ripped (confidence 32) [BD5F1D86]
Track 9 accurately ripped (confidence 32) [4D3E3920]
Track 10 accurately ripped (confidence 31) [061C0079]
Track 11 accurately ripped (confidence 32) [95745F06]
Track 12 accurately ripped (confidence 31) [9F3854FB]
Track 13 accurately ripped (confidence 30) [65D07B3A]
Track 14 accurately ripped (confidence 30) [3115A97F]

All tracks accurately ripped

End of status report

REM GENRE Rock
REM DATE 1971
REM DISCID CD12A20F
REM COMMENT “ExactAudioCopy v0.99pb4”
PERFORMER “The Who”
TITLE “Who’s Next (Disc 1)”
FILE “The Who – Who’s Next (Deluxe Edition – Disc 1).wav” WAVE
TRACK 01 AUDIO
TITLE “Baba O’Riley”
PERFORMER “The Who”
INDEX 01 00:00:00
TRACK 02 AUDIO
TITLE “Bargain”
PERFORMER “The Who”
INDEX 01 05:01:21
TRACK 03 AUDIO
TITLE “Love Ain’t For Keeping”
PERFORMER “The Who”
INDEX 01 10:35:01
TRACK 04 AUDIO
TITLE “My Wife”
PERFORMER “The Who”
INDEX 01 12:45:55
TRACK 05 AUDIO
TITLE “The Song Is Over”
PERFORMER “The Who”
INDEX 00 16:20:35
INDEX 01 16:21:51
TRACK 06 AUDIO
TITLE “Getting In Tune”
PERFORMER “The Who”
INDEX 00 22:39:24
INDEX 01 22:39:48
TRACK 07 AUDIO
TITLE “Going Mobile”
PERFORMER “The Who”
INDEX 00 27:28:73
INDEX 01 27:29:18
TRACK 08 AUDIO
TITLE “Behind Blue Eyes”
PERFORMER “The Who”
INDEX 00 31:12:28
INDEX 01 31:12:68
TRACK 09 AUDIO
TITLE “Won’t Get Fooled Again”
PERFORMER “The Who”
INDEX 00 34:55:28
INDEX 01 34:55:66
TRACK 10 AUDIO
TITLE “Baby Don’t You Do It [New York Record Plant Session]”
PERFORMER “The Who”
INDEX 00 43:28:15
INDEX 01 43:31:64
TRACK 11 AUDIO
TITLE “Getting In Tune [New York Record Plant Session]”
PERFORMER “The Who”
INDEX 00 51:53:37
INDEX 01 51:53:47
TRACK 12 AUDIO
TITLE “Pure And Easy [New York Record Plant Session]”
PERFORMER “The Who”
INDEX 00 58:28:59
INDEX 01 58:30:11
TRACK 13 AUDIO
TITLE “Love Ain’t For Keeping [New York Record Plant Session]”
PERFORMER “The Who”
INDEX 00 63:02:62
INDEX 01 63:04:00
TRACK 14 AUDIO
TITLE “Behind Blue Eyes [New York Record Plant Session]”
PERFORMER “The Who”
INDEX 00 67:08:50
INDEX 01 67:10:45
TRACK 15 AUDIO
TITLE “Won’t Get Fooled Again [New York Record Plant Session]”
PERFORMER “The Who”
INDEX 00 70:39:61
INDEX 01 70:41:39

REM GENRE Rock
REM DATE 1971
REM DISCID D8118B0E
REM COMMENT “ExactAudioCopy v0.99pb4”
PERFORMER “The Who”
TITLE “Who’s Next (Disc 2)”
FILE “The Who – Who’s Next (Deluxe Edition – Disc 2).wav” WAVE
TRACK 01 AUDIO
TITLE “Love Ain’t For Keeping [The Young Vic Theatre]”
PERFORMER “The Who”
INDEX 01 00:00:00
TRACK 02 AUDIO
TITLE “Pure And Easy [The Young Vic Theatre]”
PERFORMER “The Who”
INDEX 01 02:57:48
TRACK 03 AUDIO
TITLE “Young Man Blues [The Young Vic Theatre]”
PERFORMER “The Who”
INDEX 01 08:58:23
TRACK 04 AUDIO
TITLE “Time Is Passing [The Young Vic Theatre]”
PERFORMER “The Who”
INDEX 01 13:46:17
TRACK 05 AUDIO
TITLE “Behind Blue Eyes [The Young Vic Theatre]”
PERFORMER “The Who”
INDEX 01 17:45:26
TRACK 06 AUDIO
TITLE “I Don’t Even Know Myself [The Young Vic Theatre]”
PERFORMER “The Who”
INDEX 01 22:34:58
TRACK 07 AUDIO
TITLE “Too Much Of Anything [The Young Vic Theatre]”
PERFORMER “The Who”
INDEX 01 28:17:23
TRACK 08 AUDIO
TITLE “Getting In Tune [The Young Vic Theatre]”
PERFORMER “The Who”
INDEX 01 32:38:14
TRACK 09 AUDIO
TITLE “Bargain [The Young Vic Theatre]”
PERFORMER “The Who”
INDEX 01 39:20:22
TRACK 10 AUDIO
TITLE “Water [The Young Vic Theatre]”
PERFORMER “The Who”
INDEX 01 45:06:46
TRACK 11 AUDIO
TITLE “My Generation [The Young Vic Theatre]”
PERFORMER “The Who”
INDEX 01 53:26:42
TRACK 12 AUDIO
TITLE “(I’m A) Road Runner [The Young Vic Theatre]”
PERFORMER “The Who”
INDEX 01 56:24:63
TRACK 13 AUDIO
TITLE “Naked Eye [The Young Vic Theatre]”
PERFORMER “The Who”
INDEX 01 59:39:11
TRACK 14 AUDIO
TITLE “Won’t Get Fooled Again [The Young Vic Theatre]”
PERFORMER “The Who”
INDEX 01 66:00:73


Leave a Reply

Your email address will not be published. Required fields are marked *

Enter the text from the image below
 

This site uses Akismet to reduce spam. Learn how your comment data is processed.