The Who – Who’s Last (Reissue)




[Total: 0    Average: 0/5]

Artist: The Who
Year: 1984
Genre: Rock
Notes: Discogs
Add. Notes: Reissue
Cover incl.: Yes
Encoder: FLAC
Bitrate: ~1000 kBit/s (44.1 kHz/16 Bit/s)
Log & Cue incl.: Yes
Size: 517 MB
Password: “slam” (without ” “)


All Downloads/Hosters are compatible

Download 1
Share-online.biz
KatFile.com
Rapidgator.net
Mexa.sh
Download 2
Share-online.biz
KatFile.com
Rapidgator.net
Mexa.sh

Tracklist:

1 - My Generation - 3:23
2 - I Can't Explain - 2:27
3 - Substitute - 2:46
4 - Behind Blue Eyes - 3:30
5 - Baba O'Riley - 3:30
6 - Boris The Spider - 2:29
7 - Who Are You - 6:28
8 - Pinball Wizard - 2:50
9 - See Me, Feel Me - 4:09
10 - Love, Reign Over Me - 4:39
11 - Long Live Rock - 3:35
12 - Long Live Rock (Reprise) - 1:30
13 - Won't Get Fooled Again - 10:03
14 - Dr. Jimmy - 4:35
15 - Magic Bus - 6:49
16 - Summertime Blues - 2:59
17 - Twist & Shout - 3:58

EAC-Log, CUE-Sheed & NFO:

Click to open spoiler
Exact Audio Copy V0.99 prebeta 4 from 23. January 2008

EAC extraction logfile from 4. June 2009, 15:49

The Who / Who’s Last

Used drive : HL-DT-STDVDRAM GSA-T20N Adapter: 1 ID: 0

Read mode : Secure
Utilize accurate stream : Yes
Defeat audio cache : Yes
Make use of C2 pointers : No

Read offset correction : 667
Overread into Lead-In and Lead-Out : No
Fill up missing offset samples with silence : Yes
Delete leading and trailing silent blocks : No
Null samples used in CRC calculations : Yes
Used interface : Installed external ASPI interface

Used output format : Internal WAV Routines
Sample format : 44.100 Hz; 16 Bit; Stereo

TOC of the extracted CD

Track | Start | Length | Start sector | End sector
———————————————————
1 | 0:00.00 | 3:23.37 | 0 | 15261
2 | 3:23.37 | 2:35.38 | 15262 | 26924
3 | 5:59.00 | 2:57.00 | 26925 | 40199
4 | 8:56.00 | 3:40.00 | 40200 | 56699
5 | 12:36.00 | 5:37.00 | 56700 | 81974
6 | 18:13.00 | 2:41.00 | 81975 | 94049
7 | 20:54.00 | 6:35.00 | 94050 | 123674
8 | 27:29.00 | 2:52.42 | 123675 | 136616
9 | 30:21.42 | 4:41.33 | 136617 | 157724
10 | 35:03.00 | 5:13.00 | 157725 | 181199
11 | 40:16.00 | 3:34.25 | 181200 | 197274
12 | 43:50.25 | 1:38.50 | 197275 | 204674
13 | 45:29.00 | 11:21.00 | 204675 | 255749
14 | 56:50.00 | 4:56.00 | 255750 | 277949
15 | 61:46.00 | 6:54.00 | 277950 | 308999
16 | 68:40.00 | 3:07.40 | 309000 | 323064
17 | 71:47.40 | 3:59.35 | 323065 | 341024

Range status and errors

Selected range

Filename The Who – Who’s Last.wav

Peak level 100.0 %
Range quality 99.9 %
Copy CRC 308DB3ED
Copy OK

No errors occurred

End of status report

REM GENRE Rock
REM DATE 1984
REM DISCID D511C311
REM COMMENT “ExactAudioCopy v0.99pb4”
PERFORMER “The Who”
TITLE “Who’s Last”
FILE “The Who – Who’s Last.wav” WAVE
TRACK 01 AUDIO
TITLE “My Generation”
PERFORMER “The Who”
INDEX 01 00:00:00
TRACK 02 AUDIO
TITLE “I Can’t Explain”
PERFORMER “The Who”
INDEX 01 03:23:37
TRACK 03 AUDIO
TITLE “Substitute”
PERFORMER “The Who”
INDEX 01 05:59:00
TRACK 04 AUDIO
TITLE “Behind Blue Eyes”
PERFORMER “The Who”
INDEX 01 08:56:00
TRACK 05 AUDIO
TITLE “Baba O’Riley”
PERFORMER “The Who”
INDEX 01 12:36:00
TRACK 06 AUDIO
TITLE “Boris The Spider”
PERFORMER “The Who”
INDEX 01 18:13:00
TRACK 07 AUDIO
TITLE “Who Are You”
PERFORMER “The Who”
INDEX 01 20:54:00
TRACK 08 AUDIO
TITLE “Pinball Wizard”
PERFORMER “The Who”
INDEX 01 27:29:00
TRACK 09 AUDIO
TITLE “See Me, Feel Me”
PERFORMER “The Who”
INDEX 01 30:21:42
TRACK 10 AUDIO
TITLE “Love, Reign O’er Me”
PERFORMER “The Who”
INDEX 01 35:03:00
TRACK 11 AUDIO
TITLE “Long Live Rock”
PERFORMER “The Who”
INDEX 01 40:16:00
TRACK 12 AUDIO
TITLE “Long Live Rock (Reprise)”
PERFORMER “The Who”
INDEX 01 43:50:25
TRACK 13 AUDIO
TITLE “Won’t Get Fooled Again”
PERFORMER “The Who”
INDEX 01 45:29:00
TRACK 14 AUDIO
TITLE “Dr Jimmy”
PERFORMER “The Who”
INDEX 00 55:40:01
INDEX 01 56:50:00
TRACK 15 AUDIO
TITLE “Magic Bus”
PERFORMER “The Who”
INDEX 01 61:46:00
TRACK 16 AUDIO
TITLE “Summertime Blues”
PERFORMER “The Who”
INDEX 01 68:40:00
TRACK 17 AUDIO
TITLE “Twist And Shout”
PERFORMER “The Who”
INDEX 01 71:47:40


Spread the Download

Leave a Reply

Your email address will not be published. Required fields are marked *

Enter the text from the image below
 

This site uses Akismet to reduce spam. Learn how your comment data is processed.