The Who – Who Are You (Remastered)




Artist: The Who
Year: 1978/1996
Genre: Rock
Notes: Discogs
Add. Notes: Remastered
Cover incl.: Yes
Encoder: FLAC
Bitrate: ~900 kBit/s (44.1 kHz/16 Bit/s)
Log & Cue incl.: Yes
Size: 456,34 MB
Password: “slam” (without ” “)


All Downloads/Hosters are compatible

Download 1
Turbobit.net
KatFile.com
Rapidgator.net
ddl.to
Download 2
Turbobit.net
KatFile.com
Rapidgator.net
ddl.to

Tracklist:

1 - New Song - 4:13
2 - Had Enough - 4:30
3 - 905 - 4:02
4 - Sister Disco - 4:22
5 - Music Must Change - 4:38
6 - Trick Of The Light - 4:45
7 - Guitar And Pen - 5:56
8 - Love Is Coming Down - 4:04
9 - Who Are You - 6:16
10 - No Road Romance - 5:05
11 - Empty Glass - 6:23
12 - Guitar And Pen (Olympic '78 Mix) - 6:00
13 - Love Is Coming Down (Work-In-Progress Mix) - 4:06
14 - Who Are You (Lost Verse Mix) - 6:21

EAC-Log, CUE-Sheed & NFO:

Click to open spoiler
Exact Audio Copy V0.99 prebeta 4 from 23. January 2008

EAC extraction logfile from 20. July 2008, 21:56

The Who / Who Are You

Used drive : HL-DT-STDVDRAM GSA-T20N Adapter: 1 ID: 0

Read mode : Secure
Utilize accurate stream : Yes
Defeat audio cache : Yes
Make use of C2 pointers : No

Read offset correction : 667
Overread into Lead-In and Lead-Out : No
Fill up missing offset samples with silence : Yes
Delete leading and trailing silent blocks : No
Null samples used in CRC calculations : Yes
Used interface : Installed external ASPI interface

Used output format : Internal WAV Routines
Sample format : 44.100 Hz; 16 Bit; Stereo

TOC of the extracted CD

Track | Start | Length | Start sector | End sector
———————————————————
1 | 0:00.00 | 4:13.00 | 0 | 18974
2 | 4:13.00 | 4:30.33 | 18975 | 39257
3 | 8:43.33 | 4:02.45 | 39258 | 57452
4 | 12:46.03 | 4:22.02 | 57453 | 77104
5 | 17:08.05 | 4:38.03 | 77105 | 97957
6 | 21:46.08 | 4:47.52 | 97958 | 119534
7 | 26:33.60 | 5:58.38 | 119535 | 146422
8 | 32:32.23 | 4:06.62 | 146423 | 164934
9 | 36:39.10 | 6:21.48 | 164935 | 193557
10 | 43:00.58 | 5:05.30 | 193558 | 216462
11 | 48:06.13 | 6:23.07 | 216463 | 245194
12 | 54:29.20 | 6:02.03 | 245195 | 272347
13 | 60:31.23 | 4:05.67 | 272348 | 290789
14 | 64:37.15 | 6:22.20 | 290790 | 319459

Range status and errors

Selected range

Filename Who Are You.wav

Peak level 99.4 %
Range quality 100.0 %
Copy CRC 4ADCAF60
Copy OK

No errors occurred

AccurateRip summary

Track 1 accurately ripped (confidence 4) [B8CDC915]
Track 2 accurately ripped (confidence 4) [7E1F3EC3]
Track 3 accurately ripped (confidence 4) [0DEC019E]
Track 4 accurately ripped (confidence 4) [1AF2CD09]
Track 5 accurately ripped (confidence 4) [A7C2DD72]
Track 6 accurately ripped (confidence 4) [0F62AB0D]
Track 7 accurately ripped (confidence 4) [954BF34D]
Track 8 accurately ripped (confidence 4) [7B1C9A96]
Track 9 accurately ripped (confidence 4) [7D580954]
Track 10 accurately ripped (confidence 4) [4E55519D]
Track 11 accurately ripped (confidence 4) [A2DD5D55]
Track 12 accurately ripped (confidence 4) [27717DAA]
Track 13 accurately ripped (confidence 3) [09809A53]
Track 14 accurately ripped (confidence 4) [ABAE62B4]

All tracks accurately ripped

End of status report

REM GENRE Rock
REM DATE 1978
REM DISCID CD10A30E
REM COMMENT “ExactAudioCopy v0.99pb4”
PERFORMER “The Who”
TITLE “Who Are You”
FILE “The Who – Who Are You.wav” WAVE
TRACK 01 AUDIO
TITLE “New Song”
PERFORMER “The Who”
INDEX 01 00:00:00
TRACK 02 AUDIO
TITLE “Had Enough”
PERFORMER “The Who”
INDEX 00 04:11:38
INDEX 01 04:13:00
TRACK 03 AUDIO
TITLE “905”
PERFORMER “The Who”
INDEX 00 08:43:23
INDEX 01 08:43:33
TRACK 04 AUDIO
TITLE “Sister Disco”
PERFORMER “The Who”
INDEX 00 12:45:40
INDEX 01 12:46:03
TRACK 05 AUDIO
TITLE “Music Must Change”
PERFORMER “The Who”
INDEX 00 17:06:48
INDEX 01 17:08:05
TRACK 06 AUDIO
TITLE “Trick Of The Light”
PERFORMER “The Who”
INDEX 00 21:44:53
INDEX 01 21:46:08
TRACK 07 AUDIO
TITLE “Guitar And Pen”
PERFORMER “The Who”
INDEX 00 26:32:03
INDEX 01 26:33:60
TRACK 08 AUDIO
TITLE “Love Is Coming Down”
PERFORMER “The Who”
INDEX 00 32:30:68
INDEX 01 32:32:23
TRACK 09 AUDIO
TITLE “Who Are You”
PERFORMER “The Who”
INDEX 00 36:37:00
INDEX 01 36:39:10
TRACK 10 AUDIO
TITLE “No Road Romance”
PERFORMER “The Who”
INDEX 00 42:55:53
INDEX 01 43:00:58
TRACK 11 AUDIO
TITLE “Empty Glass”
PERFORMER “The Who”
INDEX 01 48:06:13
TRACK 12 AUDIO
TITLE “Guitar And Pen (Olympic ’78 Mix)”
PERFORMER “The Who”
INDEX 01 54:29:20
TRACK 13 AUDIO
TITLE “Love Is Coming Down (Work-In-Progress Mix)”
PERFORMER “The Who”
INDEX 00 60:29:30
INDEX 01 60:31:23
TRACK 14 AUDIO
TITLE “Who Are You (Lost Verse Mix)”
PERFORMER “The Who”
INDEX 00 64:35:65
INDEX 01 64:37:15


Leave a Reply

Your email address will not be published. Required fields are marked *

Enter the text from the image below
 

This site uses Akismet to reduce spam. Learn how your comment data is processed.