The Who – Tommy (Remastered)




[Total: 0    Average: 0/5]

Artist: The Who
Year: 1969/1996
Genre: Rock
Notes: Discogs
Add. Notes: Remastered
Cover incl.: Yes
Encoder: FLAC
Bitrate: ~900 kBit/s (44.1 kHz/16 Bit/s)
Log & Cue incl.: Yes
Size: 478 MB
Password: “slam” (without ” “)


All Downloads/Hosters are compatible

Download 1
KatFile.com
Turbobit.net
FileFactory.com
Rapidgator.net
Download 2
KatFile.com
Turbobit.net
FileFactory.com
Rapidgator.net

Tracklist:

1 - Overture - 5:21
2 - It's A Boy - 0:39
3 - 1921 - 2:50
4 - Amazing Journey - 3:25
5 - Sparks - 3:47
6 - Eyesight To The Blind (The 
Hawker) - 2:14
7 - Christmas - 4:34
8 - Cousin Kevin - 4:07
9 - The Acid Queen - 3:35
10 - Underture - 10:09
11 - Do You Think It's Alright? - 0:24
12 - Fiddle About - 1:30
13 - Pinball Wizard - 3:02
14 - There's A Doctor - 0:24
15 - Go To The Mirror! - 3:50
16 - Tommy Can You Hear Me? - 1:36
17 - Smash The Mirror - 1:35
18 - Sensation - 2:28
19 - Miracle Cure - 0:12
20 - Sally Simpson - 4:12
21 - I'm Free - 2:40
22 - Welcome - 4:34
23 - Tommy's Holiday Camp - 0:57
24 - We're Not Gonna Take It - 7:09

EAC-Log, CUE-Sheed & NFO:

Click to open spoiler
Exact Audio Copy V0.99 prebeta 4 from 23. January 2008

EAC extraction logfile from 28. November 2008, 22:03

The Who / Tommy

Used drive : HL-DT-STDVDRAM GSA-T20N Adapter: 1 ID: 0

Read mode : Secure
Utilize accurate stream : Yes
Defeat audio cache : Yes
Make use of C2 pointers : No

Read offset correction : 667
Overread into Lead-In and Lead-Out : No
Fill up missing offset samples with silence : Yes
Delete leading and trailing silent blocks : No
Null samples used in CRC calculations : Yes
Used interface : Installed external ASPI interface

Used output format : Internal WAV Routines
Sample format : 44.100 Hz; 16 Bit; Stereo

TOC of the extracted CD

Track | Start | Length | Start sector | End sector
———————————————————
1 | 0:00.32 | 5:21.65 | 32 | 24171
2 | 5:22.22 | 0:38.55 | 24172 | 27076
3 | 6:01.02 | 2:49.58 | 27077 | 39809
4 | 8:50.60 | 3:24.70 | 39810 | 55179
5 | 12:15.55 | 3:46.52 | 55180 | 72181
6 | 16:02.32 | 2:13.50 | 72182 | 82206
7 | 18:16.07 | 4:34.00 | 82207 | 102756
8 | 22:50.07 | 4:07.20 | 102757 | 121301
9 | 26:57.27 | 3:34.60 | 121302 | 137411
10 | 30:32.12 | 10:09.03 | 137412 | 183089
11 | 40:41.15 | 0:24.32 | 183090 | 184921
12 | 41:05.47 | 1:29.60 | 184922 | 191656
13 | 42:35.32 | 3:01.58 | 191657 | 205289
14 | 45:37.15 | 0:23.57 | 205290 | 207071
15 | 46:00.72 | 3:49.38 | 207072 | 224284
16 | 49:50.35 | 1:36.07 | 224285 | 231491
17 | 51:26.42 | 1:35.28 | 231492 | 238644
18 | 53:01.70 | 2:27.37 | 238645 | 249706
19 | 55:29.32 | 0:12.35 | 249707 | 250641
20 | 55:41.67 | 4:12.10 | 250642 | 269551
21 | 59:54.02 | 2:40.10 | 269552 | 281561
22 | 62:34.12 | 4:34.05 | 281562 | 302116
23 | 67:08.17 | 0:57.40 | 302117 | 306431
24 | 68:05.57 | 7:08.20 | 306432 | 338551

Range status and errors

Selected range

Filename The Who – Tommy.wav

Peak level 98.2 %
Range quality 99.9 %
Copy CRC 4A161F0A
Copy OK

No errors occurred

End of status report

REM GENRE Rock
REM DATE 1969
REM DISCID 7411A218
REM COMMENT “ExactAudioCopy v0.99pb4”
PERFORMER “The Who”
TITLE “Tommy”
FILE “The Who – Tommy.wav” WAVE
TRACK 01 AUDIO
TITLE “Overture”
PERFORMER “The Who”
INDEX 00 00:00:00
INDEX 01 00:00:32
TRACK 02 AUDIO
TITLE “It’s A Boy”
PERFORMER “The Who”
INDEX 01 05:22:22
TRACK 03 AUDIO
TITLE “1921”
PERFORMER “The Who”
INDEX 01 06:01:02
TRACK 04 AUDIO
TITLE “Amazing Journey”
PERFORMER “The Who”
INDEX 00 08:50:40
INDEX 01 08:50:60
TRACK 05 AUDIO
TITLE “Sparks”
PERFORMER “The Who”
INDEX 00 12:15:50
INDEX 01 12:15:55
TRACK 06 AUDIO
TITLE “Eyesight To The Blind (The Hawker)”
PERFORMER “The Who”
INDEX 01 16:02:32
TRACK 07 AUDIO
TITLE “Christmas”
PERFORMER “The Who”
INDEX 01 18:16:07
TRACK 08 AUDIO
TITLE “Cousin Kevin”
PERFORMER “The Who”
INDEX 01 22:50:07
TRACK 09 AUDIO
TITLE “The Acid Queen”
PERFORMER “The Who”
INDEX 01 26:57:27
TRACK 10 AUDIO
TITLE “Underture”
PERFORMER “The Who”
INDEX 01 30:32:12
TRACK 11 AUDIO
TITLE “Do You Think It’s Alright”
PERFORMER “The Who”
INDEX 01 40:41:15
TRACK 12 AUDIO
TITLE “Fiddle About”
PERFORMER “The Who”
INDEX 01 41:05:47
TRACK 13 AUDIO
TITLE “Pinball Wizard”
PERFORMER “The Who”
INDEX 01 42:35:32
TRACK 14 AUDIO
TITLE “There’s A Doctor”
PERFORMER “The Who”
INDEX 00 45:36:27
INDEX 01 45:37:15
TRACK 15 AUDIO
TITLE “Go To The Mirror!”
PERFORMER “The Who”
INDEX 01 46:00:72
TRACK 16 AUDIO
TITLE “Tommy Can You Hear Me”
PERFORMER “The Who”
INDEX 01 49:50:35
TRACK 17 AUDIO
TITLE “Smash The Mirror”
PERFORMER “The Who”
INDEX 01 51:26:42
TRACK 18 AUDIO
TITLE “Sensation”
PERFORMER “The Who”
INDEX 01 53:01:70
TRACK 19 AUDIO
TITLE “Miracle Cure”
PERFORMER “The Who”
INDEX 01 55:29:32
TRACK 20 AUDIO
TITLE “Sally Simpson”
PERFORMER “The Who”
INDEX 00 55:41:25
INDEX 01 55:41:67
TRACK 21 AUDIO
TITLE “I’m Free”
PERFORMER “The Who”
INDEX 01 59:54:02
TRACK 22 AUDIO
TITLE “Welcome”
PERFORMER “The Who”
INDEX 01 62:34:12
TRACK 23 AUDIO
TITLE “Tommy’s Holiday Camp”
PERFORMER “The Who”
INDEX 01 67:08:17
TRACK 24 AUDIO
TITLE “We’re Not Gonna Take It”
PERFORMER “The Who”
INDEX 01 68:05:57


Spread the Download

Leave a Reply

Your email address will not be published. Required fields are marked *

Enter the text from the image below
 

This site uses Akismet to reduce spam. Learn how your comment data is processed.