The Who – Tommy (Remastered Deluxe Edition)




Artist: The Who
Year: 2003
Genre: Rock
Notes: Discogs
Add. Notes: Remastered Deluxe Edition
Cover incl.: Yes
Encoder: FLAC
Bitrate: ~900 kBit/s (44.1 kHz/16 Bit/s)
Log & Cue incl.: Yes
Size: 819,49 MB
Password: “slam” (without ” “)


All Downloads/Hosters are compatible

Download 1
Turbobit.net
KatFile.com
Rapidgator.net
Download 2
Turbobit.net
KatFile.com
Rapidgator.net

Tracklist:

The Original Album
1-1 - Overture - 5:20
1-2 - It's A Boy - 0:38
1-3 - 1921 - 2:49
1-4 - Amazing Journey - 5:04
1-5 - Sparks - 2:07
1-6 - Eyesight To The Blind (The Hawker) - 2:13
1-7 - Christmas - 4:33
1-8 - Cousin Kevin - 4:04
1-9 - The Acid Queen - 3:34
1-10 - Underture - 10:07
1-11 - Do You Think It's Alright? - 0:24
1-12 - Fiddle About - 1:29
1-13 - Pinball Wizard - 3:17
1-14 - There's A Doctor - 0:23
1-15 - Go To The Mirror! - 3:48
1-16 - Tommy Can You Hear Me? - 1:45
1-17 - Smash The Mirror - 1:23
1-18 - Sensation - 2:28
1-19 - Miracle Cure - 0:12
1-20 - Sally Simpson - 4:11
1-21 - I'm Free - 2:39
1-22 - Welcome - 4:33
1-23 - Tommy's Holiday Camp - 0:57
1-24 - We're Not Gonna Take It - 3:28
1-25 - See Me Feel Me / Listening To You - 3:32
Out-Takes And Demos
2-1 - I Was - 0:16
2-2 - Christmas (Out-Take 3) - 4:43
2-3 - Cousin Kevin Model Child - 1:25
2-4 - Young Man Blues (Version 1) - 2:50
2-5 - Tommy Can You Hear Me? (Alt. Version) - 1:58
2-6 - Trying To Get Through - 2:51
2-7 - Sally Simpson (Out-Takes) - 4:09
2-8 - Miss Simpson - 4:17
2-9 - Welcome (Take 2) - 3:44
2-10 - Tommy's Holiday Camp (Band's Version) - 1:06
2-11 - We're Not Gonna Take It (Alt. Version) - 6:08
2-12 - Dogs - Part 2 - 2:26
Stereo Only Demos
2-13 - It's A Boy - 0:43
2-14 - Amazing Journey - 3:41
1-15 - Christmas - 1:55
2-16 - Do You Think It's Alright? - 0:28
2-17 - Pinball Wizard - 3:44

EAC-Log, CUE-Sheed & NFO:

Click to open spoiler
Exact Audio Copy V0.99 prebeta 4 from 23. January 2008

EAC extraction logfile from 28. May 2009, 10:03

The Who / Tommy (Deluxe Edition – Disc 1)

Used drive : HL-DT-STDVDRAM GSA-T20N Adapter: 1 ID: 0

Read mode : Secure
Utilize accurate stream : Yes
Defeat audio cache : Yes
Make use of C2 pointers : No

Read offset correction : 667
Overread into Lead-In and Lead-Out : No
Fill up missing offset samples with silence : Yes
Delete leading and trailing silent blocks : No
Null samples used in CRC calculations : Yes
Used interface : Installed external ASPI interface

Used output format : Internal WAV Routines
Sample format : 44.100 Hz; 16 Bit; Stereo

TOC of the extracted CD

Track | Start | Length | Start sector | End sector
———————————————————
1 | 0:00.00 | 5:20.65 | 0 | 24064
2 | 5:20.65 | 0:38.41 | 24065 | 26955
3 | 5:59.31 | 2:48.74 | 26956 | 39629
4 | 8:48.30 | 5:04.21 | 39630 | 62450
5 | 13:52.51 | 2:05.03 | 62451 | 71828
6 | 15:57.54 | 2:14.27 | 71829 | 81905
7 | 18:12.06 | 4:32.47 | 81906 | 102352
8 | 22:44.53 | 4:06.51 | 102353 | 120853
9 | 26:51.29 | 3:34.14 | 120854 | 136917
10 | 30:25.43 | 10:04.13 | 136918 | 182230
11 | 40:29.56 | 0:24.32 | 182231 | 184062
12 | 40:54.13 | 1:31.28 | 184063 | 190915
13 | 42:25.41 | 3:01.12 | 190916 | 204502
14 | 45:26.53 | 0:23.55 | 204503 | 206282
15 | 45:50.33 | 3:47.65 | 206283 | 223372
16 | 49:38.23 | 1:35.40 | 223373 | 230537
17 | 51:13.63 | 1:34.69 | 230538 | 237656
18 | 52:48.57 | 2:28.34 | 237657 | 248790
19 | 55:17.16 | 0:12.41 | 248791 | 249731
20 | 55:29.57 | 4:10.54 | 249732 | 268535
21 | 59:40.36 | 2:39.24 | 268536 | 280484
22 | 62:19.60 | 4:32.64 | 280485 | 300948
23 | 66:52.49 | 0:57.05 | 300949 | 305228
24 | 67:49.54 | 3:28.29 | 305229 | 320857
25 | 71:18.08 | 3:41.74 | 320858 | 337506

Range status and errors

Selected range

Filename The Who – Tommy (Deluxe Edition – Disc 1).wav

Peak level 99.8 %
Range quality 100.0 %
Copy CRC 2B727457
Copy OK

No errors occurred

AccurateRip summary

Track 1 accurately ripped (confidence 7) [086257B9]
Track 2 accurately ripped (confidence 52) [B5DFB148]
Track 3 accurately ripped (confidence 52) [115FBAE4]
Track 4 accurately ripped (confidence 52) [2F5FAF71]
Track 5 accurately ripped (confidence 53) [C18FC90D]
Track 6 accurately ripped (confidence 53) [31CA4A96]
Track 7 accurately ripped (confidence 51) [5FDE0E64]
Track 8 accurately ripped (confidence 51) [57282321]
Track 9 accurately ripped (confidence 53) [4151F44B]
Track 10 accurately ripped (confidence 51) [34A406EA]
Track 11 accurately ripped (confidence 52) [BC3DED6E]
Track 12 accurately ripped (confidence 52) [E99008F9]
Track 13 accurately ripped (confidence 56) [2BC404F0]
Track 14 accurately ripped (confidence 51) [71162866]
Track 15 accurately ripped (confidence 51) [4716DCF9]
Track 16 accurately ripped (confidence 52) [FD93EA65]
Track 17 accurately ripped (confidence 51) [3506FDD9]
Track 18 accurately ripped (confidence 52) [0533926F]
Track 19 accurately ripped (confidence 52) [698D8057]
Track 20 accurately ripped (confidence 52) [EA8768C8]
Track 21 accurately ripped (confidence 55) [94627E83]
Track 22 accurately ripped (confidence 53) [D19C9BB2]
Track 23 accurately ripped (confidence 52) [F0684BA1]
Track 24 accurately ripped (confidence 52) [38B9A412]
Track 25 accurately ripped (confidence 48) [B2D4A534]

All tracks accurately ripped

End of status report

Exact Audio Copy V0.99 prebeta 4 from 23. January 2008

EAC extraction logfile from 28. May 2009, 9:36

The Who / Tommy (Deluxe Edition – Disc 2)

Used drive : HL-DT-STDVDRAM GSA-T20N Adapter: 1 ID: 0

Read mode : Secure
Utilize accurate stream : Yes
Defeat audio cache : Yes
Make use of C2 pointers : No

Read offset correction : 667
Overread into Lead-In and Lead-Out : No
Fill up missing offset samples with silence : Yes
Delete leading and trailing silent blocks : No
Null samples used in CRC calculations : Yes
Used interface : Installed external ASPI interface

Used output format : Internal WAV Routines
Sample format : 44.100 Hz; 16 Bit; Stereo

TOC of the extracted CD

Track | Start | Length | Start sector | End sector
———————————————————
1 | 0:00.00 | 0:17.52 | 0 | 1326
2 | 0:17.52 | 4:44.71 | 1327 | 22697
3 | 5:02.48 | 1:26.33 | 22698 | 29180
4 | 6:29.06 | 2:53.06 | 29181 | 42161
5 | 9:22.12 | 2:00.59 | 42162 | 51220
6 | 11:22.71 | 2:51.35 | 51221 | 64080
7 | 14:14.31 | 4:10.25 | 64081 | 82855
8 | 18:24.56 | 4:20.65 | 82856 | 102420
9 | 22:45.46 | 3:44.51 | 102421 | 119271
10 | 26:30.22 | 1:09.26 | 119272 | 124472
11 | 27:39.48 | 6:12.08 | 124473 | 152380
12 | 33:51.56 | 2:30.10 | 152381 | 163640
13 | 36:21.66 | 0:44.06 | 163641 | 166946
14 | 37:05.72 | 3:43.10 | 166947 | 183681
15 | 40:49.07 | 1:58.07 | 183682 | 192538
16 | 42:47.14 | 0:29.23 | 192539 | 194736
17 | 43:16.37 | 3:47.01 | 194737 | 211762

Range status and errors

Selected range

Filename The Who – Tommy (Deluxe Edition – Disc 2).wav

Peak level 99.8 %
Range quality 100.0 %
Copy CRC 57163D0C
Copy OK

No errors occurred

AccurateRip summary

Track 1 accurately ripped (confidence 6) [32E9B209]
Track 2 accurately ripped (confidence 45) [79A4CFC2]
Track 3 accurately ripped (confidence 45) [D70FF967]
Track 4 accurately ripped (confidence 44) [F8BF1915]
Track 5 accurately ripped (confidence 44) [9BBEFBB2]
Track 6 accurately ripped (confidence 44) [6AFE25A6]
Track 7 accurately ripped (confidence 45) [C0B5F97F]
Track 8 accurately ripped (confidence 45) [CE33FA76]
Track 9 accurately ripped (confidence 44) [E5EA6072]
Track 10 accurately ripped (confidence 44) [E25007B2]
Track 11 accurately ripped (confidence 44) [2CE18929]
Track 12 accurately ripped (confidence 45) [956AF6C0]
Track 13 accurately ripped (confidence 44) [7FDBBE4D]
Track 14 accurately ripped (confidence 43) [228ABE78]
Track 15 accurately ripped (confidence 44) [DBB57742]
Track 16 accurately ripped (confidence 44) [04276FEC]
Track 17 accurately ripped (confidence 6) [39DA1C45]

All tracks accurately ripped

End of status report

REM GENRE Rock
REM DATE 2003
REM DISCID E90B0711
REM COMMENT “ExactAudioCopy v0.99pb4”
PERFORMER “The Who”
TITLE “Tommy (Deluxe Edition – Disc 2)”
FILE “The Who – Tommy (Deluxe Edition – Disc 2).wav” WAVE
TRACK 01 AUDIO
TITLE “I Was”
PERFORMER “The Who”
INDEX 01 00:00:00
TRACK 02 AUDIO
TITLE “Christmas (Out-Take 3)”
PERFORMER “The Who”
INDEX 00 00:17:49
INDEX 01 00:17:52
TRACK 03 AUDIO
TITLE “Cousin Kevin Model Child”
PERFORMER “The Who”
INDEX 00 05:01:30
INDEX 01 05:02:48
TRACK 04 AUDIO
TITLE “Young Man Blues (Version 1)”
PERFORMER “The Who”
INDEX 00 06:27:67
INDEX 01 06:29:06
TRACK 05 AUDIO
TITLE “Tommy, Can You Hear Me? (Alternate Version)”
PERFORMER “The Who”
INDEX 00 09:20:02
INDEX 01 09:22:12
TRACK 06 AUDIO
TITLE “Trying To Get Through”
PERFORMER “The Who”
INDEX 00 11:21:13
INDEX 01 11:22:71
TRACK 07 AUDIO
TITLE “Sally Simpson (Out-Takes)”
PERFORMER “The Who”
INDEX 01 14:14:31
TRACK 08 AUDIO
TITLE “Miss Simpson”
PERFORMER “The Who”
INDEX 00 18:24:05
INDEX 01 18:24:56
TRACK 09 AUDIO
TITLE “Welcome (Take 2)”
PERFORMER “The Who”
INDEX 00 22:42:53
INDEX 01 22:45:46
TRACK 10 AUDIO
TITLE “Tommy’s Holiday Camp (Band’s Version)”
PERFORMER “The Who”
INDEX 00 26:30:11
INDEX 01 26:30:22
TRACK 11 AUDIO
TITLE “We’re Not Gonna Take It (Alternate Version)”
PERFORMER “The Who”
INDEX 00 27:37:20
INDEX 01 27:39:48
TRACK 12 AUDIO
TITLE “Dogs (Part 2)”
PERFORMER “The Who”
INDEX 00 33:48:12
INDEX 01 33:51:56
TRACK 13 AUDIO
TITLE “It’s A Boy”
PERFORMER “The Who”
INDEX 00 36:18:18
INDEX 01 36:21:66
TRACK 14 AUDIO
TITLE “Amazing Journey”
PERFORMER “The Who”
INDEX 00 37:04:69
INDEX 01 37:05:72
TRACK 15 AUDIO
TITLE “Christmas”
PERFORMER “The Who”
INDEX 00 40:47:12
INDEX 01 40:49:07
TRACK 16 AUDIO
TITLE “Do You Think It’s Alright?”
PERFORMER “The Who”
INDEX 00 42:44:50
INDEX 01 42:47:14
TRACK 17 AUDIO
TITLE “Pinball Wizard”
PERFORMER “The Who”
INDEX 00 43:15:29
INDEX 01 43:16:37

REM GENRE Rock
REM DATE 1969
REM DISCID 58119419
REM COMMENT “ExactAudioCopy v0.99pb4”
PERFORMER “The Who”
TITLE “Tommy (Deluxe Edition – Disc 1)”
FILE “The Who – Tommy (Deluxe Edition – Disc 1).wav” WAVE
TRACK 01 AUDIO
TITLE “Overture”
PERFORMER “The Who”
INDEX 01 00:00:00
TRACK 02 AUDIO
TITLE “It’s A Boy”
PERFORMER “The Who”
INDEX 01 05:20:65
TRACK 03 AUDIO
TITLE “1921”
PERFORMER “The Who”
INDEX 01 05:59:31
TRACK 04 AUDIO
TITLE “Amazing Journey”
PERFORMER “The Who”
INDEX 01 08:48:30
TRACK 05 AUDIO
TITLE “Sparks”
PERFORMER “The Who”
INDEX 01 13:52:51
TRACK 06 AUDIO
TITLE “Eyesight To The Blind (The Hawker)”
PERFORMER “The Who”
INDEX 01 15:57:54
TRACK 07 AUDIO
TITLE “Christmas”
PERFORMER “The Who”
INDEX 00 18:11:35
INDEX 01 18:12:06
TRACK 08 AUDIO
TITLE “Cousin Kevin”
PERFORMER “The Who”
INDEX 01 22:44:53
TRACK 09 AUDIO
TITLE “The Acid Queen”
PERFORMER “The Who”
INDEX 01 26:51:29
TRACK 10 AUDIO
TITLE “Underture”
PERFORMER “The Who”
INDEX 01 30:25:43
TRACK 11 AUDIO
TITLE “Do You Think It’s Alright?”
PERFORMER “The Who”
INDEX 00 40:27:66
INDEX 01 40:29:56
TRACK 12 AUDIO
TITLE “Fiddle About”
PERFORMER “The Who”
INDEX 01 40:54:13
TRACK 13 AUDIO
TITLE “Pinball Wizard”
PERFORMER “The Who”
INDEX 00 42:23:62
INDEX 01 42:25:41
TRACK 14 AUDIO
TITLE “There’s A Doctor”
PERFORMER “The Who”
INDEX 01 45:26:53
TRACK 15 AUDIO
TITLE “Go To The Mirror!”
PERFORMER “The Who”
INDEX 01 45:50:33
TRACK 16 AUDIO
TITLE “Tommy, Can You Hear Me?”
PERFORMER “The Who”
INDEX 01 49:38:23
TRACK 17 AUDIO
TITLE “Smash The Mirror”
PERFORMER “The Who”
INDEX 01 51:13:63
TRACK 18 AUDIO
TITLE “Sensation”
PERFORMER “The Who”
INDEX 01 52:48:57
TRACK 19 AUDIO
TITLE “Miracle Cure”
PERFORMER “The Who”
INDEX 00 55:14:68
INDEX 01 55:17:16
TRACK 20 AUDIO
TITLE “Sally Simpson”
PERFORMER “The Who”
INDEX 01 55:29:57
TRACK 21 AUDIO
TITLE “I’m Free”
PERFORMER “The Who”
INDEX 01 59:40:36
TRACK 22 AUDIO
TITLE “Welcome”
PERFORMER “The Who”
INDEX 01 62:19:60
TRACK 23 AUDIO
TITLE “Tommy’s Holiday Camp”
PERFORMER “The Who”
INDEX 01 66:52:49
TRACK 24 AUDIO
TITLE “We’re Not Gonna Take It”
PERFORMER “The Who”
INDEX 01 67:49:54
TRACK 25 AUDIO
TITLE “See Me, Feel Me/Listening To You”
PERFORMER “The Who”
INDEX 01 71:18:08


Leave a Reply

Your email address will not be published. Required fields are marked *

This site uses Akismet to reduce spam. Learn how your comment data is processed.