The Who – The Who Sell Out (Remastered Deluxe Edition)




Artist: The Who
Year: 1967/2009
Genre: Rock
Notes: Discogs
Add. Notes: Remastered Deluxe Edition
Cover incl.: Yes
Encoder: FLAC
Bitrate: ~1000 kBit/s (44.1 kHz/16 Bit/s)
Log & Cue incl.: Yes
Size: 877,16 MB
Password: “slam” (without ” “)


All Downloads/Hosters are compatible

Download 1
Turbobit.net
KatFile.com
Rapidgator.net
Usersdrive.com
Download 2
Turbobit.net
KatFile.com
Rapidgator.net
Usersdrive.com

Tracklist:

The Original Stereo Album
1-1 - Armenia City In The Sky - 3:12
1-2 - Heinz Baked Beans - 0:57
1-3 - Mary Anne With The Shaky 
Hand - 2:04
1-4 - Odorono - 2:16
1-5 - Tattoo - 2:42
1-6 - Our Love Was - 3:06
1-7 - I Can See For Miles - 4:18
1-8 - I Can't Reach You - 3:03
1-9 - Medac - 0:57
1-10 - Relax - 2:38
1-11 - Silas Stingy - 3:04
1-12 - Sunrise - 3:03
1-13 - Rael 1 & 2 - 5:41
Bonus Tracks
1-14 - Rael Naive - 0:59
1-15 - Someone's Coming - 2:36
1-16 - Early Morning Cold Taxi - 2:59
1-17 - Jaguar - 2:58
1-18 - Coke After Coke - 1:05
1-19 - Glittering Girl - 3:00
1-20 - Summertime Blues - 2:35
1-21 - John Mason Cars - 0:39
1-22 - Girl's Eyes - 2:52
1-23 - Sodding About - 2:47
1-24 - Premier Drums (Full Version) - 
0:43
1-25 - Odorono (Final Chorus) - 0:24
1-26 - Mary Anne With The Shaky 
Hand (U S Mirasound 
Version) - 3:22
1-27 - Things Go Better With Coke - 
0:30
1-28 - In The Hall Of The Mountain 
King - 4:23
1-29 - Top Gear - 0:52
1-30 - Rael 1 & 2 (Remake Version) - 
6:37
The Original Mono Album
2-1 - Armenia City In The Sky - 3:47
2-2 - Heinz Baked Beans - 0:58
2-3 - Mary Anne With The Shaky 
Hand - 2:34
2-4 - Odorono - 2:30
2-5 - Tattoo - 2:48
2-6 - Our Love Was - 3:23
2-7 - I Can See For Miles - 4:06
2-8 - I Can't Reach You - 3:27
2-9 - Medac - 0:56
2-10 - Relax - 2:38
2-11 - Silas Stingy - 3:03
2-12 - Sunrise - 3:04
2-13 - Rael 1 & 2 - 5:54
Bonus Tracks
2-14 - Mary Anne With The Shaky 
Hand (U S Single Mono 
Mix) - 3:19
2-15 - Someone's Coming (U K Single 
Mono Mix) - 2:32
2-16 - Relax (Early Demo - Stereo) - 
3:23
2-17 - Jaguar (Original Mono Mix) - 
2:51
2-18 - Glittering Girl (Unreleased 
Stereo Version) - 3:18
2-19 - Tattoo (Early Mono Mix) - 2:48
2-20 - Our Love Was (Take 12 - 
Unused Mono Mix) - 3:17
2-21 - Rotosound Strings (With Final 
Note - Stereo) - 
0:12
2-22 - I Can See For Miles (Early 
Mono Mix) - 4:02
2-23 - Rael (Early Mono Mix) - 10:49

EAC-Log, CUE-Sheed & NFO:

Click to open spoiler
Exact Audio Copy V0.99 prebeta 4 from 23. January 2008

EAC extraction logfile from 14. April 2009, 2:43

The Who / The Who Sell Out (Deluxe Edition – Disc 1)

Used drive : HL-DT-STDVDRAM GSA-T20N Adapter: 1 ID: 0

Read mode : Secure
Utilize accurate stream : Yes
Defeat audio cache : Yes
Make use of C2 pointers : No

Read offset correction : 667
Overread into Lead-In and Lead-Out : No
Fill up missing offset samples with silence : Yes
Delete leading and trailing silent blocks : No
Null samples used in CRC calculations : Yes
Used interface : Installed external ASPI interface

Used output format : Internal WAV Routines
Sample format : 44.100 Hz; 16 Bit; Stereo

TOC of the extracted CD

Track | Start | Length | Start sector | End sector
———————————————————
1 | 0:00.00 | 3:51.21 | 0 | 17345
2 | 3:51.21 | 1:00.62 | 17346 | 21907
3 | 4:52.08 | 2:34.26 | 21908 | 33483
4 | 7:26.34 | 2:35.18 | 33484 | 45126
5 | 10:01.52 | 2:54.28 | 45127 | 58204
6 | 12:56.05 | 3:25.18 | 58205 | 73597
7 | 16:21.23 | 4:09.61 | 73598 | 92333
8 | 20:31.09 | 3:31.45 | 92334 | 108203
9 | 24:02.54 | 0:57.36 | 108204 | 112514
10 | 25:00.15 | 2:41.62 | 112515 | 124651
11 | 27:42.02 | 3:08.25 | 124652 | 138776
12 | 30:50.27 | 3:06.03 | 138777 | 152729
13 | 33:56.30 | 5:41.40 | 152730 | 178344
14 | 39:37.70 | 0:59.11 | 178345 | 182780
15 | 40:37.06 | 2:36.64 | 182781 | 194544
16 | 43:13.70 | 2:59.29 | 194545 | 207998
17 | 46:13.24 | 2:58.37 | 207999 | 221385
18 | 49:11.61 | 1:05.71 | 221386 | 226331
19 | 50:17.57 | 3:00.55 | 226332 | 239886
20 | 53:18.37 | 2:35.51 | 239887 | 251562
21 | 55:54.13 | 0:39.52 | 251563 | 254539
22 | 56:33.65 | 2:52.59 | 254540 | 267498
23 | 59:26.49 | 2:47.35 | 267499 | 280058
24 | 62:14.09 | 0:43.11 | 280059 | 283294
25 | 62:57.20 | 0:24.38 | 283295 | 285132
26 | 63:21.58 | 3:22.61 | 285133 | 300343
27 | 66:44.44 | 0:30.12 | 300344 | 302605
28 | 67:14.56 | 4:23.36 | 302606 | 322366
29 | 71:38.17 | 0:52.48 | 322367 | 326314
30 | 72:30.65 | 6:37.29 | 326315 | 356118

Range status and errors

Selected range

Filename The Who – The Who Sell Out (Deluxe Edition – Disc 1).wav

Peak level 99.9 %
Range quality 100.0 %
Copy CRC C400050D
Copy OK

No errors occurred

AccurateRip summary

Track 1 not present in database
Track 2 not present in database
Track 3 not present in database
Track 4 not present in database
Track 5 not present in database
Track 6 not present in database
Track 7 not present in database
Track 8 not present in database
Track 9 not present in database
Track 10 not present in database
Track 11 not present in database
Track 12 not present in database
Track 13 not present in database
Track 14 not present in database
Track 15 not present in database
Track 16 not present in database
Track 17 not present in database
Track 18 not present in database
Track 19 not present in database
Track 20 not present in database
Track 21 not present in database
Track 22 not present in database
Track 23 not present in database
Track 24 not present in database
Track 25 not present in database
Track 26 not present in database
Track 27 not present in database
Track 28 not present in database
Track 29 not present in database
Track 30 not present in database

None of the tracks are present in the AccurateRip database

End of status report

Exact Audio Copy V0.99 prebeta 4 from 23. January 2008

EAC extraction logfile from 14. April 2009, 3:08

The Who / The Who Sell Out (Deluxe Edition) – Disc 2)

Used drive : HL-DT-STDVDRAM GSA-T20N Adapter: 1 ID: 0

Read mode : Secure
Utilize accurate stream : Yes
Defeat audio cache : Yes
Make use of C2 pointers : No

Read offset correction : 667
Overread into Lead-In and Lead-Out : No
Fill up missing offset samples with silence : Yes
Delete leading and trailing silent blocks : No
Null samples used in CRC calculations : Yes
Used interface : Installed external ASPI interface

Used output format : Internal WAV Routines
Sample format : 44.100 Hz; 16 Bit; Stereo

TOC of the extracted CD

Track | Start | Length | Start sector | End sector
———————————————————
1 | 0:00.00 | 3:47.12 | 0 | 17036
2 | 3:47.12 | 0:58.62 | 17037 | 21448
3 | 4:45.74 | 2:34.74 | 21449 | 33072
4 | 7:20.73 | 2:30.52 | 33073 | 44374
5 | 9:51.50 | 2:48.71 | 44375 | 57045
6 | 12:40.46 | 3:23.70 | 57046 | 72340
7 | 16:04.41 | 4:06.36 | 72341 | 90826
8 | 20:11.02 | 3:27.11 | 90827 | 106362
9 | 23:38.13 | 0:56.26 | 106363 | 110588
10 | 24:34.39 | 2:38.58 | 110589 | 122496
11 | 27:13.22 | 3:03.14 | 122497 | 136235
12 | 30:16.36 | 3:04.63 | 136236 | 150098
13 | 33:21.24 | 5:54.38 | 150099 | 176686
14 | 39:15.62 | 3:19.48 | 176687 | 191659
15 | 42:35.35 | 2:32.61 | 191660 | 203120
16 | 45:08.21 | 3:23.40 | 203121 | 218385
17 | 48:31.61 | 2:51.56 | 218386 | 231266
18 | 51:23.42 | 3:18.26 | 231267 | 246142
19 | 54:41.68 | 2:48.35 | 246143 | 258777
20 | 57:30.28 | 3:17.49 | 258778 | 273601
21 | 60:48.02 | 0:12.28 | 273602 | 274529
22 | 61:00.30 | 4:02.57 | 274530 | 292736
23 | 65:03.12 | 10:49.72 | 292737 | 341483

Range status and errors

Selected range

Filename The Who – The Who Sell Out (Deluxe Edition) – Disc 2).wav

Peak level 99.9 %
Range quality 100.0 %
Copy CRC 04C3F3CA
Copy OK

No errors occurred

AccurateRip summary

Track 1 not present in database
Track 2 not present in database
Track 3 not present in database
Track 4 not present in database
Track 5 not present in database
Track 6 not present in database
Track 7 not present in database
Track 8 not present in database
Track 9 not present in database
Track 10 not present in database
Track 11 not present in database
Track 12 not present in database
Track 13 not present in database
Track 14 not present in database
Track 15 not present in database
Track 16 not present in database
Track 17 not present in database
Track 18 not present in database
Track 19 not present in database
Track 20 not present in database
Track 21 not present in database
Track 22 not present in database
Track 23 not present in database

None of the tracks are present in the AccurateRip database

End of status report

REM GENRE Rock
REM DATE 2009
REM DISCID C1128C1E
REM COMMENT “ExactAudioCopy v0.99pb4”
PERFORMER “The Who”
TITLE “The Who Sell Out (Deluxe Edition – Disc 1)”
FILE “The Who – The Who Sell Out (Deluxe Edition – Disc 1).wav” WAVE
TRACK 01 AUDIO
TITLE “Armenia City In The Sky”
PERFORMER “The Who”
INDEX 01 00:00:00
TRACK 02 AUDIO
TITLE “Heinz Baked Beans”
PERFORMER “The Who”
INDEX 01 03:51:21
TRACK 03 AUDIO
TITLE “Mary Anne With The Shaky Hand”
PERFORMER “The Who”
INDEX 01 04:52:08
TRACK 04 AUDIO
TITLE “Odorono”
PERFORMER “The Who”
INDEX 01 07:26:34
TRACK 05 AUDIO
TITLE “Tattoo”
PERFORMER “The Who”
INDEX 01 10:01:52
TRACK 06 AUDIO
TITLE “Our Love Was”
PERFORMER “The Who”
INDEX 01 12:56:05
TRACK 07 AUDIO
TITLE “I Can See For Miles”
PERFORMER “The Who”
INDEX 01 16:21:23
TRACK 08 AUDIO
TITLE “I Can’t Reach You”
PERFORMER “The Who”
INDEX 00 20:27:08
INDEX 01 20:31:09
TRACK 09 AUDIO
TITLE “Medac”
PERFORMER “The Who”
INDEX 01 24:02:54
TRACK 10 AUDIO
TITLE “Relax”
PERFORMER “The Who”
INDEX 01 25:00:15
TRACK 11 AUDIO
TITLE “Silas Stingy”
PERFORMER “The Who”
INDEX 00 27:38:70
INDEX 01 27:42:02
TRACK 12 AUDIO
TITLE “Sunrise”
PERFORMER “The Who”
INDEX 00 30:46:13
INDEX 01 30:50:27
TRACK 13 AUDIO
TITLE “Rael 1 & 2”
PERFORMER “The Who”
INDEX 00 33:54:15
INDEX 01 33:56:30
TRACK 14 AUDIO
TITLE “Rael Naive”
PERFORMER “The Who”
INDEX 00 39:36:22
INDEX 01 39:37:70
TRACK 15 AUDIO
TITLE “Someone’s Coming”
PERFORMER “The Who”
INDEX 01 40:37:06
TRACK 16 AUDIO
TITLE “Early Morning Cold Taxi”
PERFORMER “The Who”
INDEX 01 43:13:70
TRACK 17 AUDIO
TITLE “Jaguar”
PERFORMER “The Who”
INDEX 01 46:13:24
TRACK 18 AUDIO
TITLE “Coke After Coke”
PERFORMER “The Who”
INDEX 01 49:11:61
TRACK 19 AUDIO
TITLE “Glittering Girl”
PERFORMER “The Who”
INDEX 00 50:17:16
INDEX 01 50:17:57
TRACK 20 AUDIO
TITLE “Summertime Blues”
PERFORMER “The Who”
INDEX 01 53:18:37
TRACK 21 AUDIO
TITLE “John Mason Cars”
PERFORMER “The Who”
FLAGS DCP
INDEX 01 55:54:13
TRACK 22 AUDIO
TITLE “Girls’s Eyes”
PERFORMER “The Who”
INDEX 00 56:33:53
INDEX 01 56:33:65
TRACK 23 AUDIO
TITLE “Sodding About”
PERFORMER “The Who”
INDEX 01 59:26:49
TRACK 24 AUDIO
TITLE “Premier Drums (Full Version)”
PERFORMER “The Who”
INDEX 01 62:14:09
TRACK 25 AUDIO
TITLE “Odorono (Final Chorus)”
PERFORMER “The Who”
INDEX 00 62:56:31
INDEX 01 62:57:20
TRACK 26 AUDIO
TITLE “Mary Anne With The Shaky Hand (US Mirasound Version)”
PERFORMER “The Who”
INDEX 00 63:21:33
INDEX 01 63:21:58
TRACK 27 AUDIO
TITLE “Things Go Better With Coke”
PERFORMER “The Who”
INDEX 01 66:44:44
TRACK 28 AUDIO
TITLE “In The Hall Of The Mountain King”
PERFORMER “The Who”
INDEX 01 67:14:56
TRACK 29 AUDIO
TITLE “Top Gear”
PERFORMER “The Who”
INDEX 01 71:38:17
TRACK 30 AUDIO
TITLE “Rael 1&2 (Remake Version)”
PERFORMER “The Who”
INDEX 00 72:28:37
INDEX 01 72:30:65

REM GENRE Rock
REM DATE 2009
REM DISCID 4111C917
REM COMMENT “ExactAudioCopy v0.99pb4”
PERFORMER “The Who”
TITLE “The Who Sell Out (Deluxe Edition) – Disc 2)”
FILE “The Who – The Who Sell Out (Deluxe Edition) – Disc 2).flac” WAVE
TRACK 01 AUDIO
TITLE “Armenia City In The Sky (Mono)”
PERFORMER “The Who”
FLAGS DCP
INDEX 01 00:00:00
TRACK 02 AUDIO
TITLE “Heinz Baked Beans (Mono)”
PERFORMER “The Who”
FLAGS DCP
INDEX 01 03:47:12
TRACK 03 AUDIO
TITLE “Mary Anne With The Shaky Hand (Mono)”
PERFORMER “The Who”
FLAGS DCP
INDEX 01 04:45:74
TRACK 04 AUDIO
TITLE “Odorono (Mono)”
PERFORMER “The Who”
FLAGS DCP
INDEX 01 07:20:73
TRACK 05 AUDIO
TITLE “Tattoo (Mono)”
PERFORMER “The Who”
FLAGS DCP
INDEX 00 09:51:49
INDEX 01 09:51:50
TRACK 06 AUDIO
TITLE “Our Love Was (Mono)”
PERFORMER “The Who”
FLAGS DCP
INDEX 01 12:40:46
TRACK 07 AUDIO
TITLE “I Can See For Miles (Mono)”
PERFORMER “The Who”
FLAGS DCP
INDEX 01 16:04:41
TRACK 08 AUDIO
TITLE “I Can’t Reach You (Mono)”
PERFORMER “The Who”
FLAGS DCP
INDEX 00 20:07:30
INDEX 01 20:11:02
TRACK 09 AUDIO
TITLE “Medac (Mono)”
PERFORMER “The Who”
FLAGS DCP
INDEX 01 23:38:13
TRACK 10 AUDIO
TITLE “Relax (Mono)”
PERFORMER “The Who”
FLAGS DCP
INDEX 01 24:34:39
TRACK 11 AUDIO
TITLE “Silas Stingy (Mono)”
PERFORMER “The Who”
FLAGS DCP
INDEX 00 27:10:62
INDEX 01 27:13:22
TRACK 12 AUDIO
TITLE “Sunrise (Mono)”
PERFORMER “The Who”
FLAGS DCP
INDEX 00 30:11:59
INDEX 01 30:16:36
TRACK 13 AUDIO
TITLE “Rael 1 & 2 (Mono)”
PERFORMER “The Who”
FLAGS DCP
INDEX 00 33:17:17
INDEX 01 33:21:24
TRACK 14 AUDIO
TITLE “Mary Anne With The Shaky Hand (US Single Mono Mix)”
PERFORMER “The Who”
FLAGS DCP
INDEX 00 39:10:20
INDEX 01 39:15:62
TRACK 15 AUDIO
TITLE “Someone’s Coming (UK Single Mono Mix)”
PERFORMER “The Who”
FLAGS DCP
INDEX 00 42:31:68
INDEX 01 42:35:35
TRACK 16 AUDIO
TITLE “Relax (Early Demo – Stereo)”
PERFORMER “The Who”
FLAGS DCP
INDEX 00 45:06:46
INDEX 01 45:08:21
TRACK 17 AUDIO
TITLE “Jaguar (Original Mono Mix)”
PERFORMER “The Who”
FLAGS DCP
INDEX 00 48:29:64
INDEX 01 48:31:61
TRACK 18 AUDIO
TITLE “Glittering Girl (Unreleased Stereo Version)”
PERFORMER “The Who”
FLAGS DCP
INDEX 00 51:22:68
INDEX 01 51:23:42
TRACK 19 AUDIO
TITLE “Tattoo (Early Mono Mix)”
PERFORMER “The Who”
FLAGS DCP
INDEX 00 54:41:13
INDEX 01 54:41:68
TRACK 20 AUDIO
TITLE “Our Love Was (Take 12 – Unused Mono Mix)”
PERFORMER “The Who”
FLAGS DCP
INDEX 00 57:28:34
INDEX 01 57:30:28
TRACK 21 AUDIO
TITLE “Rotosound Strings (With Final Note – Stereo)”
PERFORMER “The Who”
FLAGS DCP
INDEX 00 60:46:35
INDEX 01 60:48:02
TRACK 22 AUDIO
TITLE “I Can See For Miles (Early Mono Mix)”
PERFORMER “The Who”
FLAGS DCP
INDEX 01 61:00:30
TRACK 23 AUDIO
TITLE “Rael (Early Mono Mix)”
PERFORMER “The Who”
FLAGS DCP
INDEX 00 65:01:02
INDEX 01 65:03:12


Leave a Reply

Your email address will not be published. Required fields are marked *

This site uses Akismet to reduce spam. Learn how your comment data is processed.