The Who – The Who By Numbers (Remastered)




[Total: 0    Average: 0/5]

Artist: The Who
Year: 1975/1996
Genre: Rock
Notes: Discogs
Add. Notes: Remastered
Cover incl.: Yes
Encoder: FLAC
Bitrate: ~900 kBit/s (44.1 kHz/16 Bit/s)
Log & Cue incl.: Yes
Size: 335 MB
Password: “slam” (without ” “)


All Downloads/Hosters are compatible

Download 1
KatFile.com
Rapidgator.net
NitroFlare.com
Share-online.biz
Download 2
KatFile.com
Rapidgator.net
NitroFlare.com
Share-online.biz

Tracklist:

1 - Slip Kid - 4:30
2 - However Much I Booze - 5:02
3 - Squeeze Box - 2:41
4 - Dreaming From The Waist - 4:07
5 - Imagine A Man - 4:00
6 - Success Story - 3:20
7 - They Are All In Love - 3:00
8 - Blue Red And Grey - 2:47
9 - How Many Friends - 4:05
10 - In A Hand Or A Face - 3:23
11 - Squeeze Box (Live) - 3:11
12 - Behind Blue Eyes (Live) - 3:37
13 - Dreaming From The Waist 
(Live) - 4:52

EAC-Log, CUE-Sheed & NFO:

Click to open spoiler
Exact Audio Copy V0.99 prebeta 4 from 23. January 2008

EAC extraction logfile from 5. July 2008, 19:44

The Who / The Who By Numbers

Used drive : HL-DT-STDVDRAM GSA-T20N Adapter: 1 ID: 0

Read mode : Secure
Utilize accurate stream : Yes
Defeat audio cache : Yes
Make use of C2 pointers : No

Read offset correction : 667
Overread into Lead-In and Lead-Out : No
Fill up missing offset samples with silence : Yes
Delete leading and trailing silent blocks : No
Null samples used in CRC calculations : Yes
Used interface : Installed external ASPI interface

Used output format : Internal WAV Routines
Sample format : 44.100 Hz; 16 Bit; Stereo

TOC of the extracted CD

Track | Start | Length | Start sector | End sector
———————————————————
1 | 0:00.00 | 4:29.55 | 0 | 20229
2 | 4:29.55 | 5:03.28 | 20230 | 42982
3 | 9:33.08 | 2:41.32 | 42983 | 55089
4 | 12:14.40 | 4:08.63 | 55090 | 73752
5 | 16:23.28 | 4:00.62 | 73753 | 91814
6 | 20:24.15 | 3:20.40 | 91815 | 106854
7 | 23:44.55 | 3:00.25 | 106855 | 120379
8 | 26:45.05 | 2:47.48 | 120380 | 132952
9 | 29:32.53 | 4:06.07 | 132953 | 151409
10 | 33:38.60 | 3:25.08 | 151410 | 166792
11 | 37:03.68 | 4:13.52 | 166793 | 185819
12 | 41:17.45 | 3:41.70 | 185820 | 202464
13 | 44:59.40 | 4:52.20 | 202465 | 224384

Range status and errors

Selected range

Filename The Who – The Who By Numbers.wav

Peak level 100.0 %
Range quality 100.0 %
Copy CRC 885085B6
Copy OK

No errors occurred

AccurateRip summary

Track 1 accurately ripped (confidence 4) [15FD56E7]
Track 2 accurately ripped (confidence 5) [484695A5]
Track 3 accurately ripped (confidence 5) [6C56083D]
Track 4 accurately ripped (confidence 5) [6696124C]
Track 5 accurately ripped (confidence 5) [487039F2]
Track 6 accurately ripped (confidence 5) [F2D865DB]
Track 7 accurately ripped (confidence 5) [8E12A39C]
Track 8 accurately ripped (confidence 5) [13D5B6D3]
Track 9 accurately ripped (confidence 5) [FE83DAE8]
Track 10 accurately ripped (confidence 5) [8FEC6D27]
Track 11 accurately ripped (confidence 5) [28CC49D2]
Track 12 accurately ripped (confidence 5) [33A5A783]
Track 13 accurately ripped (confidence 4) [3FDBD633]

All tracks accurately ripped

End of status report

REM GENRE Rock
REM DATE 1975
REM DISCID AB0BAF0D
REM COMMENT “ExactAudioCopy v0.99pb4”
PERFORMER “The Who”
TITLE “The Who By Numbers”
FILE “The Who – The Who By Numbers.wav” WAVE
TRACK 01 AUDIO
TITLE “Slip Kid”
PERFORMER “The Who”
INDEX 01 00:00:00
TRACK 02 AUDIO
TITLE “However Much I Booze ”
PERFORMER “The Who”
INDEX 01 04:29:55
TRACK 03 AUDIO
TITLE “Squeeze Box”
PERFORMER “The Who”
INDEX 00 09:31:30
INDEX 01 09:33:08
TRACK 04 AUDIO
TITLE “Dreaming From The Waist”
PERFORMER “The Who”
INDEX 01 12:14:40
TRACK 05 AUDIO
TITLE “Imagine A Man”
PERFORMER “The Who”
INDEX 00 16:21:23
INDEX 01 16:23:28
TRACK 06 AUDIO
TITLE “Success Story”
PERFORMER “The Who”
INDEX 00 20:23:55
INDEX 01 20:24:15
TRACK 07 AUDIO
TITLE “They Are All In Love ”
PERFORMER “The Who”
INDEX 00 23:44:40
INDEX 01 23:44:55
TRACK 08 AUDIO
TITLE “Blue, Red And Grey”
PERFORMER “The Who”
INDEX 01 26:45:05
TRACK 09 AUDIO
TITLE “How Many Friends”
PERFORMER “The Who”
INDEX 00 29:31:73
INDEX 01 29:32:53
TRACK 10 AUDIO
TITLE “In A Hand Or A Face”
PERFORMER “The Who”
INDEX 00 33:37:08
INDEX 01 33:38:60
TRACK 11 AUDIO
TITLE “Squeeze Box (Live)”
PERFORMER “The Who”
INDEX 00 37:01:48
INDEX 01 37:03:68
INDEX 02 37:32:13
TRACK 12 AUDIO
TITLE “Behind Blue Eyes (Live)”
PERFORMER “The Who”
INDEX 00 40:15:40
INDEX 01 41:17:45
TRACK 13 AUDIO
TITLE “Dreaming From The Waist (Live)”
PERFORMER “The Who”
INDEX 00 44:54:58
INDEX 01 44:59:40


Spread the Download

Leave a Reply

Your email address will not be published. Required fields are marked *

Enter the text from the image below
 

This site uses Akismet to reduce spam. Learn how your comment data is processed.