The Who – The Kids Are Alright (Remastered)




Artist: The Who
Year: 1979/2000
Genre: Rock
Notes: Discogs
Add. Notes: Remastered
Cover incl.: Yes
Encoder: FLAC
Bitrate: ~1000 kBit/s (44.1 kHz/16 Bit/s)
Log & Cue incl.: Yes
Size: 551,81 MB
Password: “slam” (without ” “)


All Downloads/Hosters are compatible

Download 1
Turbobit.net
KatFile.com
Rapidgator.net
NitroFlare.com
Download 2
Turbobit.net
KatFile.com
Rapidgator.net
NitroFlare.com

Tracklist:

1 - My Generation - 4:29
2 - I Can't Explain - 2:01
3 - Happy Jack - 2:11
4 - I Can See For Miles - 4:15
5 - Magic Bus - 3:23
6 - Long Live Rock - 3:56
7 - Anyway, Anyhow, Anywhere - 2:49
8 - Young Man Blues - 5:44
9 - My Wife - 5:58
10 - Baba O'Riley - 5:25
11 - A Quick One While He's Away - 7:24
12 - Tommy, Can You Hear Me? - 1:45
13 - Sparks - 3:00
14 - Pinball Wizard - 2:47
15 - See Me, Feel Me - 5:20
16 - Join Together / Road Runner / My Generation Blues 
(Medley) - 9:50
17 - Won't Get Fooled Again - 9:21

EAC-Log, CUE-Sheed & NFO:

Click to open spoiler
Exact Audio Copy V0.99 prebeta 4 from 23. January 2008

EAC extraction logfile from 8. July 2009, 22:02

The Who / The Kids Are Alright

Used drive : HL-DT-STDVDRAM GSA-T20N Adapter: 1 ID: 0

Read mode : Secure
Utilize accurate stream : Yes
Defeat audio cache : Yes
Make use of C2 pointers : No

Read offset correction : 667
Overread into Lead-In and Lead-Out : No
Fill up missing offset samples with silence : Yes
Delete leading and trailing silent blocks : No
Null samples used in CRC calculations : Yes
Used interface : Installed external ASPI interface

Used output format : Internal WAV Routines
Sample format : 44.100 Hz; 16 Bit; Stereo

TOC of the extracted CD

Track | Start | Length | Start sector | End sector
———————————————————
1 | 0:00.00 | 4:29.09 | 0 | 20183
2 | 4:29.09 | 2:01.00 | 20184 | 29258
3 | 6:30.09 | 2:11.54 | 29259 | 39137
4 | 8:41.63 | 4:15.21 | 39138 | 58283
5 | 12:57.09 | 3:22.69 | 58284 | 73502
6 | 16:20.03 | 3:56.42 | 73503 | 91244
7 | 20:16.45 | 2:49.26 | 91245 | 103945
8 | 23:05.71 | 5:44.27 | 103946 | 129772
9 | 28:50.23 | 5:58.44 | 129773 | 156666
10 | 34:48.67 | 5:25.02 | 156667 | 181043
11 | 40:13.69 | 7:23.74 | 181044 | 214342
12 | 47:37.68 | 1:45.31 | 214343 | 222248
13 | 49:23.24 | 3:00.14 | 222249 | 235762
14 | 52:23.38 | 2:47.58 | 235763 | 248345
15 | 55:11.21 | 5:19.70 | 248346 | 272340
16 | 60:31.16 | 9:50.47 | 272341 | 316637
17 | 70:21.63 | 9:21.27 | 316638 | 358739

Range status and errors

Selected range

Filename D:\Temp\The Who – 1979 – The Kids Are Alright (Polydor 543694-2)\The Who – The Kids Are Alright.wav

Peak level 99.7 %
Range quality 100.0 %
Copy CRC B46BC612
Copy OK

No errors occurred

AccurateRip summary

Track 1 accurately ripped (confidence 2) [55153200]
Track 2 accurately ripped (confidence 2) [86C673ED]
Track 3 accurately ripped (confidence 2) [52FFA978]
Track 4 accurately ripped (confidence 2) [B9A01844]
Track 5 accurately ripped (confidence 2) [54511432]
Track 6 accurately ripped (confidence 2) [0494EBF8]
Track 7 accurately ripped (confidence 2) [9C891A97]
Track 8 accurately ripped (confidence 2) [852D8355]
Track 9 accurately ripped (confidence 2) [67E1C8E1]
Track 10 accurately ripped (confidence 2) [830449EE]
Track 11 accurately ripped (confidence 2) [4E6DA5EF]
Track 12 accurately ripped (confidence 2) [067D5938]
Track 13 accurately ripped (confidence 2) [20AE6CE7]
Track 14 accurately ripped (confidence 2) [4F13ED81]
Track 15 accurately ripped (confidence 2) [CAE6F70A]
Track 16 accurately ripped (confidence 2) [7EE07635]
Track 17 accurately ripped (confidence 2) [29D4B7EA]

All tracks accurately ripped

End of status report

REM GENRE Rock
REM DATE 1979
REM DISCID F012AF11
REM COMMENT “ExactAudioCopy v0.99pb4”
PERFORMER “The Who”
TITLE “The Kids Are Alright”
FILE “The Who – The Kids Are Alright.wav” WAVE
TRACK 01 AUDIO
TITLE “My Generation”
PERFORMER “The Who”
INDEX 01 00:00:00
TRACK 02 AUDIO
TITLE “I Can’t Explain”
PERFORMER “The Who”
INDEX 01 04:29:09
TRACK 03 AUDIO
TITLE “Happy Jack”
PERFORMER “The Who”
INDEX 01 06:30:09
TRACK 04 AUDIO
TITLE “I Can See for Miles”
PERFORMER “The Who”
INDEX 00 08:41:50
INDEX 01 08:41:63
TRACK 05 AUDIO
TITLE “Magic Bus”
PERFORMER “The Who”
INDEX 00 12:56:69
INDEX 01 12:57:09
TRACK 06 AUDIO
TITLE “Long Live Rock”
PERFORMER “The Who”
INDEX 00 16:18:65
INDEX 01 16:20:03
TRACK 07 AUDIO
TITLE “Anyway, Anyhow, Anywhere”
PERFORMER “The Who”
INDEX 00 20:14:33
INDEX 01 20:16:45
TRACK 08 AUDIO
TITLE “Young Man Blues”
PERFORMER “The Who”
INDEX 01 23:05:71
TRACK 09 AUDIO
TITLE “My Wife”
PERFORMER “The Who”
INDEX 01 28:50:23
TRACK 10 AUDIO
TITLE “Baba O’Riley”
PERFORMER “The Who”
INDEX 01 34:48:67
TRACK 11 AUDIO
TITLE “A Quick One, While He’s Away”
PERFORMER “The Who”
INDEX 01 40:13:69
TRACK 12 AUDIO
TITLE “Tommy, Can You Hear Me?”
PERFORMER “The Who”
INDEX 01 47:37:68
TRACK 13 AUDIO
TITLE “Sparks”
PERFORMER “The Who”
INDEX 01 49:23:24
TRACK 14 AUDIO
TITLE “Pinball Wizard”
PERFORMER “The Who”
INDEX 01 52:23:38
TRACK 15 AUDIO
TITLE “See Me, Feel Me”
PERFORMER “The Who”
INDEX 01 55:11:21
TRACK 16 AUDIO
TITLE “Join Together/Roadrunner/My Generation Blues”
PERFORMER “The Who”
INDEX 01 60:31:16
TRACK 17 AUDIO
TITLE “Won’t Get Fooled Again”
PERFORMER “The Who”
INDEX 01 70:21:63


Leave a Reply

Your email address will not be published. Required fields are marked *

This site uses Akismet to reduce spam. Learn how your comment data is processed.