The Who – Quadrophenia (Remastered)




Artist: The Who
Year: 1973/1996
Genre: Rock
Notes: Discogs
Add. Notes: Remastered
Cover incl.: Yes
Encoder: FLAC
Bitrate: ~1000 kBit/s (44.1 kHz/16 Bit/s)
Log & Cue incl.: Yes
Size: 575 MB
Password: “slam” (without ” “)


All Downloads/Hosters are compatible

Download 1
KatFile.com
Rapidgator.net
Turbobit.net
FileFactory.com
Download 2
KatFile.com
Rapidgator.net
Turbobit.net
FileFactory.com

Tracklist:

1-1 - I Am The Sea - 2:09
1-2 - The Real Me - 3:21
1-3 - Quadrophenia - 6:13
1-4 - Cut My Hair - 3:44
1-5 - The Punk And The Godfather - 
5:11
1-6 - I'm One - 2:38
1-7 - The Dirty Jobs - 4:29
1-8 - Helpless Dancer - 2:34
1-9 - Is It In My Head? - 3:43
1-10 - I've Had Enough - 6:14

2-1 - 5:15 - 4:59
2-2 - Sea And Sand - 5:01
2-3 - Drowned - 5:27
2-4 - Bell Boy - 4:55
2-5 - Doctor Jimmy - 8:36
2-6 - The Rock - 6:37
2-7 - Love Reign O'er Me - 5:48

EAC-Log, CUE-Sheed & NFO:

Click to open spoiler
Exact Audio Copy V0.99 prebeta 4 from 23. January 2008

EAC extraction logfile from 29. November 2008, 14:21

The Who / Quadrophenia (Disc 1)

Used drive : HL-DT-STDVDRAM GSA-T20N Adapter: 1 ID: 0

Read mode : Secure
Utilize accurate stream : Yes
Defeat audio cache : Yes
Make use of C2 pointers : No

Read offset correction : 667
Overread into Lead-In and Lead-Out : No
Fill up missing offset samples with silence : Yes
Delete leading and trailing silent blocks : No
Null samples used in CRC calculations : Yes
Used interface : Installed external ASPI interface

Used output format : Internal WAV Routines
Sample format : 44.100 Hz; 16 Bit; Stereo

TOC of the extracted CD

Track | Start | Length | Start sector | End sector
———————————————————
1 | 0:00.00 | 2:08.70 | 0 | 9669
2 | 2:08.70 | 3:20.47 | 9670 | 24716
3 | 5:29.42 | 6:13.13 | 24717 | 52704
4 | 11:42.55 | 3:44.67 | 52705 | 69571
5 | 15:27.47 | 5:10.53 | 69572 | 92874
6 | 20:38.25 | 2:37.50 | 92875 | 104699
7 | 23:16.00 | 4:29.02 | 104700 | 124876
8 | 27:45.02 | 2:33.40 | 124877 | 136391
9 | 30:18.42 | 3:43.33 | 136392 | 153149
10 | 34:02.00 | 6:14.17 | 153150 | 181216

Range status and errors

Selected range

Filename The Who – Quadrophenia (Disc 1).wav

Peak level 99.4 %
Range quality 100.0 %
Copy CRC 1055F83E
Copy OK

No errors occurred

End of status report

Exact Audio Copy V0.99 prebeta 4 from 23. January 2008

EAC extraction logfile from 29. November 2008, 14:49

The Who / Quadrophenia (Disc 2)

Used drive : HL-DT-STDVDRAM GSA-T20N Adapter: 1 ID: 0

Read mode : Secure
Utilize accurate stream : Yes
Defeat audio cache : Yes
Make use of C2 pointers : No

Read offset correction : 667
Overread into Lead-In and Lead-Out : No
Fill up missing offset samples with silence : Yes
Delete leading and trailing silent blocks : No
Null samples used in CRC calculations : Yes
Used interface : Installed external ASPI interface

Used output format : Internal WAV Routines
Sample format : 44.100 Hz; 16 Bit; Stereo

TOC of the extracted CD

Track | Start | Length | Start sector | End sector
———————————————————
1 | 0:00.00 | 4:59.72 | 0 | 22496
2 | 4:59.72 | 5:01.18 | 22497 | 45089
3 | 10:01.15 | 5:26.72 | 45090 | 69611
4 | 15:28.12 | 4:55.23 | 69612 | 91759
5 | 20:23.35 | 8:36.05 | 91760 | 130464
6 | 28:59.40 | 6:37.15 | 130465 | 160254
7 | 35:36.55 | 5:48.10 | 160255 | 186364

Range status and errors

Selected range

Filename The Who – Quadrophenia (Disc 2).wav

Peak level 100.0 %
Range quality 99.9 %
Copy CRC 26B202A3
Copy OK

No errors occurred

End of status report

REM GENRE Rock
REM DATE 1973
REM DISCID 7109700A
REM COMMENT “ExactAudioCopy v0.99pb4”
PERFORMER “The Who”
TITLE “Quadrophenia (Disc 1)”
FILE “The Who – Quadrophenia (Disc 1).wav” WAVE
TRACK 01 AUDIO
TITLE “I Am The Sea”
PERFORMER “The Who”
INDEX 01 00:00:00
TRACK 02 AUDIO
TITLE “The Real Me”
PERFORMER “The Who”
INDEX 01 02:08:70
TRACK 03 AUDIO
TITLE “Quadrophenia”
PERFORMER “The Who”
INDEX 01 05:29:42
TRACK 04 AUDIO
TITLE “Cut My Hair”
PERFORMER “The Who”
INDEX 01 11:42:55
TRACK 05 AUDIO
TITLE “The Punk And The Godfather”
PERFORMER “The Who”
INDEX 00 15:27:00
INDEX 01 15:27:47
TRACK 06 AUDIO
TITLE “I’m One”
PERFORMER “The Who”
INDEX 01 20:38:25
TRACK 07 AUDIO
TITLE “The Dirty Jobs”
PERFORMER “The Who”
INDEX 01 23:16:00
TRACK 08 AUDIO
TITLE “Helpless Dancer”
PERFORMER “The Who”
INDEX 01 27:45:02
TRACK 09 AUDIO
TITLE “Is It In My Head”
PERFORMER “The Who”
INDEX 01 30:18:42
TRACK 10 AUDIO
TITLE “I’ve Had Enough”
PERFORMER “The Who”
INDEX 01 34:02:00

REM GENRE Rock
REM DATE 1973
REM DISCID 4009B407
REM COMMENT “ExactAudioCopy v0.99pb4”
PERFORMER “The Who”
TITLE “Quadrophenia (Disc 2)”
FILE “The Who – Quadrophenia (Disc 2).wav” WAVE
TRACK 01 AUDIO
TITLE “5:15”
PERFORMER “The Who”
INDEX 01 00:00:00
TRACK 02 AUDIO
TITLE “Sea And Sand”
PERFORMER “The Who”
INDEX 00 04:59:37
INDEX 01 04:59:72
TRACK 03 AUDIO
TITLE “Drowned”
PERFORMER “The Who”
INDEX 00 10:01:07
INDEX 01 10:01:15
TRACK 04 AUDIO
TITLE “Bell Boy”
PERFORMER “The Who”
INDEX 01 15:28:12
TRACK 05 AUDIO
TITLE “Doctor Jimmy”
PERFORMER “The Who”
INDEX 00 20:23:07
INDEX 01 20:23:35
TRACK 06 AUDIO
TITLE “The Rock”
PERFORMER “The Who”
INDEX 01 28:59:40
TRACK 07 AUDIO
TITLE “Love, Reign O’er Me”
PERFORMER “The Who”
INDEX 01 35:36:55


Leave a Reply

Your email address will not be published. Required fields are marked *

This site uses Akismet to reduce spam. Learn how your comment data is processed.