The Who – Odds & Sods (Remastered)




Artist: The Who
Year: 1974/1998
Genre: Rock
Notes: Discogs
Add. Notes: Remastered
Cover incl.: Yes
Encoder: FLAC
Bitrate: ~900 kBit/s (44.1 kHz/16 Bit/s)
Log & Cue incl.: Yes
Size: 510,97 MB
Password: “slam” (without ” “)


All Downloads/Hosters are compatible

Download 1
Turbobit.net
KatFile.com
Rapidgator.net
Download 2
Turbobit.net
KatFile.com
Rapidgator.net

Tracklist:

1 - I'm The Face - 2:27
2 - Leaving Here - 2:12
3 - Baby Don't You Do It - 2:27
4 - Summertime Blues - 3:13
5 - Under My Thumb - 2:44
6 - Mary Anne With The Shaky Hand - 3:21
7 - My Way - 2:26
8 - Faith In Something Bigger - 2:59
9 - Glow Girl - 2:24
10 - Little Billy - 2:17
11 - Young Man Blues (Studio Version) - 2:44
12 - Cousin Kevin Model Child - 1:24
13 - Love Ain't For Keeping - 4:03
14 - Time Is Passing - 3:29
15 - Pure And Easy - 5:21
16 - Too Much Of Anything - 4:21
17 - Long Live Rock - 3:56
18 - Put The Money Down - 4:29
19 - We Close Tonight - 2:56
20 - Postcard - 3:30
21 - Now I'm A Farmer - 4:06
22 - Water - 4:39
23 - Naked Eye - 5:26

EAC-Log, CUE-Sheed & NFO:

Click to open spoiler
Exact Audio Copy V0.99 prebeta 4 from 23. January 2008

EAC extraction logfile from 1. May 2008, 22:49

The Who / Odds & Sods

Used drive : HL-DT-STDVDRAM GSA-T20N Adapter: 1 ID: 0

Read mode : Secure
Utilize accurate stream : Yes
Defeat audio cache : Yes
Make use of C2 pointers : No

Read offset correction : 667
Overread into Lead-In and Lead-Out : No
Fill up missing offset samples with silence : Yes
Delete leading and trailing silent blocks : No
Null samples used in CRC calculations : Yes
Used interface : Installed external ASPI interface

Used output format : Internal WAV Routines
Sample format : 44.100 Hz; 16 Bit; Stereo

TOC of the extracted CD

Track | Start | Length | Start sector | End sector
———————————————————
1 | 0:00.00 | 2:29.15 | 0 | 11189
2 | 2:29.15 | 2:13.60 | 11190 | 21224
3 | 4:43.00 | 2:28.52 | 21225 | 32376
4 | 7:11.52 | 3:13.73 | 32377 | 46924
5 | 10:25.50 | 2:45.72 | 46925 | 59371
6 | 13:11.47 | 3:23.28 | 59372 | 74624
7 | 16:35.00 | 2:28.40 | 74625 | 85764
8 | 19:03.40 | 3:01.02 | 85765 | 99341
9 | 22:04.42 | 2:26.25 | 99342 | 110316
10 | 24:30.67 | 2:17.45 | 110317 | 120636
11 | 26:48.37 | 2:44.65 | 120637 | 133001
12 | 29:33.27 | 1:26.30 | 133002 | 139481
13 | 30:59.57 | 4:04.05 | 139482 | 157786
14 | 35:03.62 | 3:31.20 | 157787 | 173631
15 | 38:35.07 | 5:24.55 | 173632 | 197986
16 | 43:59.62 | 4:23.00 | 197987 | 217711
17 | 48:22.62 | 3:58.23 | 217712 | 235584
18 | 52:21.10 | 4:31.42 | 235585 | 255951
19 | 56:52.52 | 2:58.08 | 255952 | 269309
20 | 59:50.60 | 3:32.52 | 269310 | 285261
21 | 63:23.37 | 4:09.10 | 285262 | 303946
22 | 67:32.47 | 4:40.05 | 303947 | 324951
23 | 72:12.52 | 5:27.48 | 324952 | 349524

Range status and errors

Selected range

Filename The Who – Odds & Sods.wav

Peak level 100.0 %
Range quality 100.0 %
Copy CRC 679DB24F
Copy OK

No errors occurred

AccurateRip summary

Track 1 accurately ripped (confidence 2) [C24EC097]
Track 2 accurately ripped (confidence 2) [AD5D6E61]
Track 3 accurately ripped (confidence 2) [21FACEE1]
Track 4 accurately ripped (confidence 2) [7F94B0F5]
Track 5 accurately ripped (confidence 2) [9402A269]
Track 6 accurately ripped (confidence 2) [9D48917F]
Track 7 accurately ripped (confidence 2) [98F991A1]
Track 8 accurately ripped (confidence 2) [20FB7471]
Track 9 accurately ripped (confidence 2) [064D0688]
Track 10 accurately ripped (confidence 2) [44745394]
Track 11 accurately ripped (confidence 2) [7B7B60A0]
Track 12 accurately ripped (confidence 2) [A4BBD419]
Track 13 accurately ripped (confidence 2) [746248BE]
Track 14 accurately ripped (confidence 2) [5434F4C6]
Track 15 accurately ripped (confidence 2) [D1422E05]
Track 16 accurately ripped (confidence 2) [9F21FB65]
Track 17 accurately ripped (confidence 2) [82D178DC]
Track 18 accurately ripped (confidence 2) [67ADB36B]
Track 19 accurately ripped (confidence 2) [E3053206]
Track 20 accurately ripped (confidence 2) [77EB4F30]
Track 21 accurately ripped (confidence 2) [88CD8333]
Track 22 accurately ripped (confidence 2) [1E6470CB]
Track 23 accurately ripped (confidence 3) [7465840A]

All tracks accurately ripped

End of status report

REM GENRE Rock
REM DATE 1974
REM DISCID 35123417
REM COMMENT “ExactAudioCopy v0.99pb4”
PERFORMER “The Who”
TITLE “Odds & Sods”
FILE “The Who – Odds & Sods.wav” WAVE
TRACK 01 AUDIO
TITLE “I’m The Face”
PERFORMER “The Who”
INDEX 01 00:00:00
TRACK 02 AUDIO
TITLE “Leaving Here”
PERFORMER “The Who”
INDEX 00 02:28:55
INDEX 01 02:29:15
TRACK 03 AUDIO
TITLE “Baby Don’t You Do It”
PERFORMER “The Who”
INDEX 00 04:41:45
INDEX 01 04:43:00
TRACK 04 AUDIO
TITLE “Summertime Blues”
PERFORMER “The Who”
INDEX 00 07:10:25
INDEX 01 07:11:52
TRACK 05 AUDIO
TITLE “Under My Thumb”
PERFORMER “The Who”
INDEX 00 10:25:35
INDEX 01 10:25:50
TRACK 06 AUDIO
TITLE “Mary Anne With The Shaky Hand”
PERFORMER “The Who”
INDEX 00 13:10:37
INDEX 01 13:11:47
TRACK 07 AUDIO
TITLE “My Way”
PERFORMER “The Who”
INDEX 00 16:33:42
INDEX 01 16:35:00
TRACK 08 AUDIO
TITLE “Faith In Something Bigger”
PERFORMER “The Who”
INDEX 00 19:01:72
INDEX 01 19:03:40
TRACK 09 AUDIO
TITLE “Glow Girl”
PERFORMER “The Who”
INDEX 00 22:03:02
INDEX 01 22:04:42
TRACK 10 AUDIO
TITLE “Little Billy”
PERFORMER “The Who”
INDEX 00 24:28:62
INDEX 01 24:30:67
TRACK 11 AUDIO
TITLE “Young Man Blues (Studio Version)”
PERFORMER “The Who”
INDEX 00 26:48:07
INDEX 01 26:48:37
TRACK 12 AUDIO
TITLE “Cousin Kevin Model Child”
PERFORMER “The Who”
INDEX 00 29:32:70
INDEX 01 29:33:27
TRACK 13 AUDIO
TITLE “Love Ain’t For Keeping”
PERFORMER “The Who”
INDEX 00 30:58:35
INDEX 01 30:59:57
TRACK 14 AUDIO
TITLE “Time Is Passing”
PERFORMER “The Who”
INDEX 00 35:03:25
INDEX 01 35:03:62
TRACK 15 AUDIO
TITLE “Pure And Easy”
PERFORMER “The Who”
INDEX 00 38:33:27
INDEX 01 38:35:07
TRACK 16 AUDIO
TITLE “Too Much Of Anything”
PERFORMER “The Who”
INDEX 00 43:56:70
INDEX 01 43:59:62
TRACK 17 AUDIO
TITLE “Long Live Rock”
PERFORMER “The Who”
INDEX 00 48:21:25
INDEX 01 48:22:62
TRACK 18 AUDIO
TITLE “Put The Money Down”
PERFORMER “The Who”
INDEX 00 52:19:35
INDEX 01 52:21:10
TRACK 19 AUDIO
TITLE “We Close Tonight”
PERFORMER “The Who”
INDEX 00 56:50:67
INDEX 01 56:52:52
TRACK 20 AUDIO
TITLE “Postcard”
PERFORMER “The Who”
INDEX 00 59:49:10
INDEX 01 59:50:60
TRACK 21 AUDIO
TITLE “Now I’m A Farmer”
PERFORMER “The Who”
INDEX 00 63:21:52
INDEX 01 63:23:37
TRACK 22 AUDIO
TITLE “Water”
PERFORMER “The Who”
INDEX 00 67:29:57
INDEX 01 67:32:47
TRACK 23 AUDIO
TITLE “Naked Eye”
PERFORMER “The Who”
INDEX 00 72:12:45
INDEX 01 72:12:52


Leave a Reply

Your email address will not be published. Required fields are marked *

This site uses Akismet to reduce spam. Learn how your comment data is processed.