The Who – My Generation – The Very Best Of The Who




Artist: The Who
Year: 1996
Genre: Rock
Notes: Discogs
Add. Notes:
Cover incl.: Yes
Encoder: FLAC
Bitrate: ~900 kBit/s (44.1 kHz/16 Bit/s)
Log & Cue incl.: Yes
Size: 490 MB
Password: “slam” (without ” “)


All Downloads/Hosters are compatible

Download 1
KatFile.com
Rapidgator.net
Turbobit.net
FileFactory.com
Download 2
KatFile.com
Rapidgator.net
Turbobit.net
FileFactory.com

Tracklist:

1 - I Can't Explain - 2:04
2 - Anyway, Anyhow, Anywhere - 
2:40
3 - My Generation - 3:18
4 - Substitute - 3:47
5 - I'm A Boy - 2:36
6 - Boris The Spider - 2:27
7 - Happy Jack - 2:11
8 - Pictures Of Lily - 2:45
9 - I Can See For Miles - 4:21
10 - Magic Bus - 3:15
11 - Pinball Wizard - 3:00
12 - The Seeker - 3:22
13 - Baba O'Riley - 5:07
14 - Won't Get Fooled Again (Full 
Length Version) - 8:32
15 - Let's See Action - 4:02
16 - 5.15 - 4:49
17 - Join Together - 4:22
18 - Squeeze Box - 2:40
19 - Who Are You (Single Edit 
Version) - 5:02
20 - You Better You Bet (Full Length 
Version) - 5:37

EAC-Log, CUE-Sheed & NFO:

Click to open spoiler
Exact Audio Copy V0.99 prebeta 4 from 23. January 2008

EAC extraction logfile from 24. January 2009, 1:11

The Who / My Generation – The Very Best Of The Who

Used drive : HL-DT-STDVDRAM GSA-T20N Adapter: 1 ID: 0

Read mode : Secure
Utilize accurate stream : Yes
Defeat audio cache : Yes
Make use of C2 pointers : No

Read offset correction : 667
Overread into Lead-In and Lead-Out : No
Fill up missing offset samples with silence : Yes
Delete leading and trailing silent blocks : No
Null samples used in CRC calculations : Yes
Used interface : Installed external ASPI interface

Used output format : Internal WAV Routines
Sample format : 44.100 Hz; 16 Bit; Stereo

TOC of the extracted CD

Track | Start | Length | Start sector | End sector
———————————————————
1 | 0:00.00 | 2:04.72 | 0 | 9371
2 | 2:04.72 | 2:41.10 | 9372 | 21456
3 | 4:46.07 | 3:17.60 | 21457 | 36291
4 | 8:03.67 | 3:47.63 | 36292 | 53379
5 | 11:51.55 | 2:37.00 | 53380 | 65154
6 | 14:28.55 | 2:29.32 | 65155 | 76361
7 | 16:58.12 | 2:12.20 | 76362 | 86281
8 | 19:10.32 | 2:44.25 | 86282 | 98606
9 | 21:54.57 | 4:22.58 | 98607 | 118314
10 | 26:17.40 | 3:17.07 | 118315 | 133096
11 | 29:34.47 | 3:01.58 | 133097 | 146729
12 | 32:36.30 | 3:24.42 | 146730 | 162071
13 | 36:00.72 | 5:09.30 | 162072 | 185276
14 | 41:10.27 | 8:33.48 | 185277 | 223799
15 | 49:44.00 | 4:03.32 | 223800 | 242056
16 | 53:47.32 | 4:49.43 | 242057 | 263774
17 | 58:37.00 | 4:22.25 | 263775 | 283449
18 | 62:59.25 | 2:41.22 | 283450 | 295546
19 | 65:40.47 | 4:59.08 | 295547 | 317979
20 | 70:39.55 | 5:38.12 | 317980 | 343341

Range status and errors

Selected range

Filename The Who – My Generation – The Very Best Of The Who.wav

Peak level 99.9 %
Range quality 100.0 %
Copy CRC 7D4DC06B
Copy OK

No errors occurred

End of status report

REM GENRE Rock
REM DATE 1996
REM DISCID 2711E114
REM COMMENT “ExactAudioCopy v0.99pb4”
PERFORMER “The Who”
TITLE “My Generation – The Very Best Of The Who”
FILE “The Who – My Generation – The Very Best Of The Who.wav” WAVE
TRACK 01 AUDIO
TITLE “I Can’t Explain”
PERFORMER “The Who”
INDEX 01 00:00:00
TRACK 02 AUDIO
TITLE “Anyway, Anyhow, Anywhere”
PERFORMER “The Who”
INDEX 00 02:04:42
INDEX 01 02:04:72
TRACK 03 AUDIO
TITLE “My Generation”
PERFORMER “The Who”
INDEX 00 04:45:67
INDEX 01 04:46:07
TRACK 04 AUDIO
TITLE “Substitute”
PERFORMER “The Who”
INDEX 00 08:03:32
INDEX 01 08:03:67
TRACK 05 AUDIO
TITLE “I’m A Boy”
PERFORMER “The Who”
INDEX 00 11:51:42
INDEX 01 11:51:55
TRACK 06 AUDIO
TITLE “Boris The Spider”
PERFORMER “The Who”
INDEX 00 14:28:17
INDEX 01 14:28:55
TRACK 07 AUDIO
TITLE “Happy Jack”
PERFORMER “The Who”
INDEX 01 16:58:12
TRACK 08 AUDIO
TITLE “Pictures Of Lily”
PERFORMER “The Who”
INDEX 00 19:09:50
INDEX 01 19:10:32
TRACK 09 AUDIO
TITLE “I Can See For Miles”
PERFORMER “The Who”
INDEX 00 21:54:40
INDEX 01 21:54:57
TRACK 10 AUDIO
TITLE “Magic Bus”
PERFORMER “The Who”
INDEX 00 26:16:50
INDEX 01 26:17:40
TRACK 11 AUDIO
TITLE “Pinball Wizard”
PERFORMER “The Who”
INDEX 00 29:33:42
INDEX 01 29:34:47
TRACK 12 AUDIO
TITLE “The Seeker”
PERFORMER “The Who”
INDEX 00 32:35:52
INDEX 01 32:36:30
TRACK 13 AUDIO
TITLE “Baba O’Riley”
PERFORMER “The Who”
INDEX 01 36:00:72
TRACK 14 AUDIO
TITLE “Won’t Get Fooled Again (Full Length Version)”
PERFORMER “The Who”
INDEX 00 41:09:45
INDEX 01 41:10:27
TRACK 15 AUDIO
TITLE “Let’s See Action”
PERFORMER “The Who”
INDEX 00 49:43:15
INDEX 01 49:44:00
TRACK 16 AUDIO
TITLE “5:15”
PERFORMER “The Who”
INDEX 00 53:46:67
INDEX 01 53:47:32
TRACK 17 AUDIO
TITLE “Join Together”
PERFORMER “The Who”
INDEX 01 58:37:00
TRACK 18 AUDIO
TITLE “Squeeze Box”
PERFORMER “The Who”
INDEX 01 62:59:25
TRACK 19 AUDIO
TITLE “Who Are You (Single Edit Version)”
PERFORMER “The Who”
INDEX 00 65:40:10
INDEX 01 65:40:47
TRACK 20 AUDIO
TITLE “You Better You Bet (Full Length Version)”
PERFORMER “The Who”
INDEX 01 70:39:55


Leave a Reply

Your email address will not be published. Required fields are marked *

This site uses Akismet to reduce spam. Learn how your comment data is processed.