The Who – My Generation (Deluxe Edition)




Artist: The Who
Year: 1965/2002
Genre: Rock
Notes: Discogs
Add. Notes: Deluxe Edition
Cover incl.: Yes
Encoder: FLAC
Bitrate: ~900 kBit/s (44.1 kHz/16 Bit/s)
Log & Cue incl.: Yes
Size: 617,2 MB
Password: “slam” (without ” “)


All Downloads/Hosters are compatible

Download 1
Turbobit.net
Rapidgator.net
KatFile.com
UploadRar.com
Download 2
Turbobit.net
Rapidgator.net
KatFile.com
UploadRar.com

Tracklist:

The Original Album
1-1 - Out In The Street - 2:32
1-2 - I Don't Mind - 2:33
1-3 - The Good's Gone - 4:00
1-4 - La-La-La Lies - 2:18
1-5 - Much Too Much - 2:45
1-6 - My Generation - 3:21
1-7 - The Kids Are Alright - 3:10
1-8 - Please, Please, Please - 2:46
1-9 - It's Not True - 2:34
1-10 - I'm A Man - 3:23
1-11 - A Legal Matter - 2:54
1-12 - The Ox - 3:57
1-13 - Circles - 3:13
Bonus Tracks
1-14 - I Can't Explain - 2:04
1-15 - Bald Headed Woman - 2:32
1-16 - Daddy Rolling Stone - 2:55

Additional Bonus Tracks
2-1 - Leaving Here (Alternate) - 2:50
2-2 - Lubie (Come Back Home) - 3:40
2-3 - Shout And Shimmy - 3:20
2-4 - (Love Is Like A) Heat Wave - 2:41
2-5 - Motoring - 2:51
2-6 - Anytime You Want Me - 2:38
2-7 - Anyhow, Anywhere, Anyway (Alternate) - 2:43
2-8 - Instant Party Mixture - 3:24
2-9 - I Don't Mind (Full Length Version) - 3:43
2-10 - The Good's Gone (Full Length Version) - 4:29
2-11 - My Generation (Instrumental Version) - 3:27
2-12 - Anytime You Want Me (A Capella Version) - 2:29
Monaural Versions With Guitar Overdubs
2-13 - A Legal Matter - 2:49
2-14 - My Generation - 3:18

EAC-Log, CUE-Sheed & NFO:

Click to open spoiler
Exact Audio Copy V0.99 prebeta 4 from 23. January 2008

EAC extraction logfile from 22. June 2008, 23:48

The Who / My Generation (Deluxe Edition – Disc 1)

Used drive : HL-DT-STDVDRAM GSA-T20N Adapter: 1 ID: 0

Read mode : Secure
Utilize accurate stream : Yes
Defeat audio cache : Yes
Make use of C2 pointers : No

Read offset correction : 667
Overread into Lead-In and Lead-Out : No
Fill up missing offset samples with silence : Yes
Delete leading and trailing silent blocks : No
Null samples used in CRC calculations : Yes
Used interface : Installed external ASPI interface

Used output format : Internal WAV Routines
Sample format : 44.100 Hz; 16 Bit; Stereo

TOC of the extracted CD

Track | Start | Length | Start sector | End sector
———————————————————
1 | 0:00.00 | 2:32.25 | 0 | 11424
2 | 2:32.25 | 2:33.47 | 11425 | 22946
3 | 5:05.72 | 4:00.03 | 22947 | 40949
4 | 9:06.00 | 2:18.40 | 40950 | 51339
5 | 11:24.40 | 2:45.40 | 51340 | 63754
6 | 14:10.05 | 3:21.60 | 63755 | 78889
7 | 17:31.65 | 3:10.20 | 78890 | 93159
8 | 20:42.10 | 2:46.65 | 93160 | 105674
9 | 23:29.00 | 2:34.02 | 105675 | 117226
10 | 26:03.02 | 3:23.28 | 117227 | 132479
11 | 29:26.30 | 2:54.50 | 132480 | 145579
12 | 32:21.05 | 3:57.70 | 145580 | 163424
13 | 36:19.00 | 3:13.12 | 163425 | 177911
14 | 39:32.12 | 2:04.63 | 177912 | 187274
15 | 41:37.00 | 2:32.05 | 187275 | 198679
16 | 44:09.05 | 2:55.07 | 198680 | 211811

Range status and errors

Selected range

Filename The Who – My Generation (Deluxe Edition – Disc 1).wav

Peak level 98.8 %
Range quality 100.0 %
Copy CRC CC3F164F
Copy OK

No errors occurred

AccurateRip summary

Track 1 accurately ripped (confidence 22) [5275A380]
Track 2 accurately ripped (confidence 22) [2413E1D4]
Track 3 accurately ripped (confidence 22) [97CED233]
Track 4 accurately ripped (confidence 22) [4B35D9B4]
Track 5 accurately ripped (confidence 22) [F5FD4A26]
Track 6 accurately ripped (confidence 22) [84EC5BBE]
Track 7 accurately ripped (confidence 23) [D722AF30]
Track 8 accurately ripped (confidence 22) [F7F2F296]
Track 9 accurately ripped (confidence 22) [DE482063]
Track 10 accurately ripped (confidence 22) [DFD99707]
Track 11 accurately ripped (confidence 23) [6FC7EEDA]
Track 12 accurately ripped (confidence 24) [B1D3E94C]
Track 13 accurately ripped (confidence 22) [D5378519]
Track 14 accurately ripped (confidence 22) [120E7A1F]
Track 15 accurately ripped (confidence 22) [E2395611]
Track 16 accurately ripped (confidence 20) [63D1461C]

All tracks accurately ripped

End of status report

Exact Audio Copy V0.99 prebeta 4 from 23. January 2008

EAC extraction logfile from 23. June 2008, 0:04

The Who / My Generation (Deluxe Edition – Disc 2)

Used drive : HL-DT-STDVDRAM GSA-T20N Adapter: 1 ID: 0

Read mode : Secure
Utilize accurate stream : Yes
Defeat audio cache : Yes
Make use of C2 pointers : No

Read offset correction : 667
Overread into Lead-In and Lead-Out : No
Fill up missing offset samples with silence : Yes
Delete leading and trailing silent blocks : No
Null samples used in CRC calculations : Yes
Used interface : Installed external ASPI interface

Used output format : Internal WAV Routines
Sample format : 44.100 Hz; 16 Bit; Stereo

TOC of the extracted CD

Track | Start | Length | Start sector | End sector
———————————————————
1 | 0:00.00 | 2:50.22 | 0 | 12771
2 | 2:50.22 | 3:40.13 | 12772 | 29284
3 | 6:30.35 | 3:20.25 | 29285 | 44309
4 | 9:50.60 | 2:41.27 | 44310 | 56411
5 | 12:32.12 | 2:51.70 | 56412 | 69306
6 | 15:24.07 | 2:38.50 | 69307 | 81206
7 | 18:02.57 | 2:43.03 | 81207 | 93434
8 | 20:45.60 | 3:24.30 | 93435 | 108764
9 | 24:10.15 | 3:43.72 | 108765 | 125561
10 | 27:54.12 | 4:29.68 | 125562 | 145804
11 | 32:24.05 | 3:27.15 | 145805 | 161344
12 | 35:51.20 | 2:29.67 | 161345 | 172586
13 | 38:21.12 | 2:49.15 | 172587 | 185276
14 | 41:10.27 | 3:18.20 | 185277 | 200146

Range status and errors

Selected range

Filename The Who – My Generation (Deluxe Edition – Disc 2).wav

Peak level 98.8 %
Range quality 100.0 %
Copy CRC 5F8AC399
Copy OK

No errors occurred

AccurateRip summary

Track 1 accurately ripped (confidence 22) [D4B38303]
Track 2 accurately ripped (confidence 22) [CE198E5E]
Track 3 accurately ripped (confidence 22) [B2623741]
Track 4 accurately ripped (confidence 23) [22037668]
Track 5 accurately ripped (confidence 22) [F8BC6D2A]
Track 6 accurately ripped (confidence 22) [209A381F]
Track 7 accurately ripped (confidence 22) [11A7DF99]
Track 8 accurately ripped (confidence 22) [4176C768]
Track 9 accurately ripped (confidence 22) [01579E3E]
Track 10 accurately ripped (confidence 23) [C0682B6B]
Track 11 accurately ripped (confidence 24) [7057CE7A]
Track 12 accurately ripped (confidence 22) [697932FF]
Track 13 accurately ripped (confidence 22) [674B94AD]
Track 14 accurately ripped (confidence 22) [9A09C1EE]

All tracks accurately ripped

End of status report

REM GENRE Rock
REM DATE 2002
REM DISCID DF0B0810
REM COMMENT “ExactAudioCopy v0.99pb4”
PERFORMER “The Who”
TITLE “My Generation (Deluxe Edition – Disc 1)”
FILE “The Who – My Generation (Deluxe Edition – Disc 1).wav” WAVE
TRACK 01 AUDIO
TITLE “Out In The Street”
PERFORMER “The Who”
INDEX 01 00:00:00
TRACK 02 AUDIO
TITLE “I Don’t Mind”
PERFORMER “The Who”
INDEX 01 02:32:25
TRACK 03 AUDIO
TITLE “The Good’s Gone”
PERFORMER “The Who”
INDEX 01 05:05:72
TRACK 04 AUDIO
TITLE “La-La-La Lies”
PERFORMER “The Who”
INDEX 01 09:06:00
TRACK 05 AUDIO
TITLE “Much Too Much”
PERFORMER “The Who”
INDEX 00 11:23:35
INDEX 01 11:24:40
TRACK 06 AUDIO
TITLE “My Generation”
PERFORMER “The Who”
INDEX 01 14:10:05
TRACK 07 AUDIO
TITLE “The Kids Are Alright”
PERFORMER “The Who”
INDEX 01 17:31:65
TRACK 08 AUDIO
TITLE “Please, Please, Please”
PERFORMER “The Who”
INDEX 00 20:41:05
INDEX 01 20:42:10
TRACK 09 AUDIO
TITLE “It’s Not True”
PERFORMER “The Who”
INDEX 01 23:29:00
TRACK 10 AUDIO
TITLE “I’m A Man”
PERFORMER “The Who”
INDEX 00 26:01:72
INDEX 01 26:03:02
TRACK 11 AUDIO
TITLE “A Legal Matter”
PERFORMER “The Who”
INDEX 00 29:24:25
INDEX 01 29:26:30
TRACK 12 AUDIO
TITLE “The Ox”
PERFORMER “The Who”
INDEX 01 32:21:05
TRACK 13 AUDIO
TITLE “Circles”
PERFORMER “The Who”
INDEX 00 36:17:70
INDEX 01 36:19:00
TRACK 14 AUDIO
TITLE “I Can’t Explain”
PERFORMER “The Who”
INDEX 00 39:31:07
INDEX 01 39:32:12
TRACK 15 AUDIO
TITLE “Bald Headed Woman”
PERFORMER “The Who”
INDEX 00 41:35:70
INDEX 01 41:37:00
TRACK 16 AUDIO
TITLE “Daddy Rolling Stone”
PERFORMER “The Who”
INDEX 00 44:08:00
INDEX 01 44:09:05

REM GENRE Rock
REM DATE 2002
REM DISCID BC0A6C0E
REM COMMENT “ExactAudioCopy v0.99pb4”
PERFORMER “The Who”
TITLE “My Generation (Deluxe Edition – Disc 2)”
FILE “The Who – My Generation (Deluxe Edition – Disc 2).wav” WAVE
TRACK 01 AUDIO
TITLE “Leaving Here (Alternate)”
PERFORMER “The Who”
INDEX 01 00:00:00
TRACK 02 AUDIO
TITLE “Lubie (Come Back Home)”
PERFORMER “The Who”
INDEX 01 02:50:22
TRACK 03 AUDIO
TITLE “Shout And Shimmy”
PERFORMER “The Who”
INDEX 00 06:29:30
INDEX 01 06:30:35
TRACK 04 AUDIO
TITLE “(Love Is Like A) Heat Wave”
PERFORMER “The Who”
INDEX 00 09:49:55
INDEX 01 09:50:60
TRACK 05 AUDIO
TITLE “Motoring”
PERFORMER “The Who”
INDEX 00 12:30:45
INDEX 01 12:32:12
TRACK 06 AUDIO
TITLE “Anytime You Want Me”
PERFORMER “The Who”
INDEX 00 15:22:40
INDEX 01 15:24:07
TRACK 07 AUDIO
TITLE “Anyway, Anyhow, Anywhere (Alternate)”
PERFORMER “The Who”
INDEX 00 18:01:52
INDEX 01 18:02:57
TRACK 08 AUDIO
TITLE “Instant Party Mixture”
PERFORMER “The Who”
INDEX 01 20:45:60
TRACK 09 AUDIO
TITLE “I Don’t Mind (Full Length Version)”
PERFORMER “The Who”
INDEX 00 24:09:10
INDEX 01 24:10:15
TRACK 10 AUDIO
TITLE “The Good’s Gone (Full Length Version)”
PERFORMER “The Who”
INDEX 00 27:53:07
INDEX 01 27:54:12
TRACK 11 AUDIO
TITLE “My Generation (Instrumental Version)”
PERFORMER “The Who”
INDEX 00 32:23:00
INDEX 01 32:24:05
TRACK 12 AUDIO
TITLE “Anytime You Want Me (A Capella Version)”
PERFORMER “The Who”
INDEX 00 35:50:15
INDEX 01 35:51:20
TRACK 13 AUDIO
TITLE “A Legal Matter (Monaural Versions With Guitar Overdubs)”
PERFORMER “The Who”
INDEX 00 38:20:07
INDEX 01 38:21:12
TRACK 14 AUDIO
TITLE “My Generation (Monaural Versions With Guitar Overdubs)”
PERFORMER “The Who”
INDEX 00 41:08:60
INDEX 01 41:10:27


Leave a Reply

Your email address will not be published. Required fields are marked *

Enter the text from the image below
 

This site uses Akismet to reduce spam. Learn how your comment data is processed.