The Who – Meaty Beaty Big And Bouncy (Reissue)




Artist: The Who
Year: 1971/1990
Genre: Rock
Notes: Discogs
Add. Notes: Reissue
Cover incl.: Yes
Encoder: FLAC
Bitrate: ~800 kBit/s (44.1 kHz/16 Bit/s)
Log & Cue incl.: Yes
Size: 241 MB
Password: “slam” (without ” “)


All Downloads/Hosters are compatible

Download 1
KatFile.com
Rapidgator.net
Turbobit.net
FileFactory.com
Download 2
KatFile.com
Rapidgator.net
Turbobit.net
FileFactory.com

Tracklist:

1 - I Can't Explain - 2:05
2 - The Kids Are Alright - 2:42
3 - Happy Jack - 2:14
4 - I Can See For Miles - 3:55
5 - Pictures Of Lily - 2:37
6 - My Generation - 3:15
7 - The Seeker - 3:12
8 - Anyway, Anyhow, Anywhere - 
2:35
9 - Pinball Wizard - 3:00
10 - A Legal Matter - 2:47
11 - Boris The Spider - 2:26
12 - Magic Bus - 4:28
13 - Substitute - 3:47
14 - I'm A Boy - 3:42

EAC-Log, CUE-Sheed & NFO:

Click to open spoiler
Exact Audio Copy V0.99 prebeta 4 from 23. January 2008

EAC extraction logfile from 13. November 2008, 22:41

The Who / Meaty Beaty Big And Bouncy

Used drive : HL-DT-STDVDRAM GSA-T20N Adapter: 1 ID: 0

Read mode : Secure
Utilize accurate stream : Yes
Defeat audio cache : Yes
Make use of C2 pointers : No

Read offset correction : 667
Overread into Lead-In and Lead-Out : No
Fill up missing offset samples with silence : Yes
Delete leading and trailing silent blocks : No
Null samples used in CRC calculations : Yes
Used interface : Installed external ASPI interface

Used output format : Internal WAV Routines
Sample format : 44.100 Hz; 16 Bit; Stereo

TOC of the extracted CD

Track | Start | Length | Start sector | End sector
———————————————————
1 | 0:00.00 | 2:05.27 | 0 | 9401
2 | 2:05.27 | 2:45.40 | 9402 | 21816
3 | 4:50.67 | 2:12.68 | 21817 | 31784
4 | 7:03.60 | 4:06.00 | 31785 | 50234
5 | 11:09.60 | 2:43.32 | 50235 | 62491
6 | 13:53.17 | 3:18.55 | 62492 | 77396
7 | 17:11.72 | 3:11.00 | 77397 | 91721
8 | 20:22.72 | 2:42.65 | 91722 | 103936
9 | 23:05.62 | 2:59.60 | 103937 | 117421
10 | 26:05.47 | 2:48.25 | 117422 | 130046
11 | 28:53.72 | 2:28.00 | 130047 | 141146
12 | 31:21.72 | 3:21.00 | 141147 | 156221
13 | 34:42.72 | 3:49.13 | 156222 | 173409
14 | 38:32.10 | 3:41.37 | 173410 | 190021

Range status and errors

Selected range

Filename The Who – Meaty Beaty Big And Bouncy.wav

Peak level 96.8 %
Range quality 100.0 %
Copy CRC 76D8A28E
Copy OK

No errors occurred

End of status report

REM GENRE “Rock & Roll”
REM DATE 1971
REM DISCID B409E50E
REM COMMENT “ExactAudioCopy v0.99pb4”
PERFORMER “The Who”
TITLE “Meaty Beaty Big And Bouncy”
FILE “The Who – Meaty Beaty Big And Bouncy.wav” WAVE
TRACK 01 AUDIO
TITLE “I Can’t Explain”
PERFORMER “The Who”
INDEX 01 00:00:00
TRACK 02 AUDIO
TITLE “The Kids Are Alright”
PERFORMER “The Who”
INDEX 00 02:04:45
INDEX 01 02:05:27
TRACK 03 AUDIO
TITLE “Happy Jack”
PERFORMER “The Who”
INDEX 00 04:50:20
INDEX 01 04:50:67
TRACK 04 AUDIO
TITLE “I Can See For Miles”
PERFORMER “The Who”
INDEX 00 07:03:52
INDEX 01 07:03:60
TRACK 05 AUDIO
TITLE “Pictures Of Lily”
PERFORMER “The Who”
INDEX 00 11:09:27
INDEX 01 11:09:60
TRACK 06 AUDIO
TITLE “My Generation”
PERFORMER “The Who”
INDEX 00 13:52:42
INDEX 01 13:53:17
TRACK 07 AUDIO
TITLE “The Seeker”
PERFORMER “The Who”
INDEX 00 17:11:07
INDEX 01 17:11:72
TRACK 08 AUDIO
TITLE “Anyway, Anyhow, Anywhere”
PERFORMER “The Who”
INDEX 00 20:22:24
INDEX 01 20:22:72
TRACK 09 AUDIO
TITLE “Pinball Wizard”
PERFORMER “The Who”
INDEX 00 23:03:52
INDEX 01 23:05:62
TRACK 10 AUDIO
TITLE “A Legal Matter”
PERFORMER “The Who”
INDEX 00 26:03:55
INDEX 01 26:05:47
TRACK 11 AUDIO
TITLE “Boris The Spider”
PERFORMER “The Who”
INDEX 00 28:53:05
INDEX 01 28:53:72
TRACK 12 AUDIO
TITLE “The Magic Bus”
PERFORMER “The Who”
INDEX 00 31:21:25
INDEX 01 31:21:72
TRACK 13 AUDIO
TITLE “Substitute”
PERFORMER “The Who”
INDEX 00 34:41:15
INDEX 01 34:42:72
TRACK 14 AUDIO
TITLE “I’m A Boy”
PERFORMER “The Who”
INDEX 00 38:30:17
INDEX 01 38:32:10


Leave a Reply

Your email address will not be published. Required fields are marked *

Enter the text from the image below
 

This site uses Akismet to reduce spam. Learn how your comment data is processed.