The Who – Magic Bus




Artist: The Who
Year: 1968/1990
Genre: Rock
Notes: Discogs
Add. Notes:
Cover incl.: Yes
Encoder: FLAC
Bitrate: ~800 kBit/s (44.1 kHz/16 Bit/s)
Log & Cue incl.: Yes
Size: 192,26 MB
Password: “slam” (without ” “)


All Downloads/Hosters are compatible

Download 1
Turbobit.net
NitroFlare.com
KatFile.com
Rapidgator.net
Download 2
Turbobit.net
NitroFlare.com
KatFile.com
Rapidgator.net

Tracklist:

1 - Disguises - 3:04
2 - Run Run Run - 2:36
3 - Dr. Jekyll And Mr. Hyde - 2:24
4 - I Can't Reach You - 2:56
5 - Our Love Was, Is - 3:00
6 - Call Me Lightning - 2:21
7 - Magic Bus - 3:10
8 - Someone's Coming - 2:26
9 - Doctor, Doctor - 2:55
10 - Bucket T. - 2:05
11 - Pictures Of Lily - 2:37

EAC-Log, CUE-Sheed & NFO:

Click to open spoiler
Exact Audio Copy V0.99 prebeta 4 from 23. January 2008

EAC extraction logfile from 27. June 2009, 10:43

The Who / Magic Bus The Who On Tour

Used drive : HL-DT-STDVDRAM GSA-T20N Adapter: 1 ID: 0

Read mode : Secure
Utilize accurate stream : Yes
Defeat audio cache : Yes
Make use of C2 pointers : No

Read offset correction : 667
Overread into Lead-In and Lead-Out : No
Fill up missing offset samples with silence : Yes
Delete leading and trailing silent blocks : No
Null samples used in CRC calculations : Yes
Used interface : Installed external ASPI interface

Used output format : Internal WAV Routines
Sample format : 44.100 Hz; 16 Bit; Stereo

TOC of the extracted CD

Track | Start | Length | Start sector | End sector
———————————————————
1 | 0:00.00 | 3:14.02 | 0 | 14551
2 | 3:14.02 | 2:44.65 | 14552 | 26916
3 | 5:58.67 | 2:27.05 | 26917 | 37946
4 | 8:25.72 | 3:05.15 | 37947 | 51836
5 | 11:31.12 | 3:09.18 | 51837 | 66029
6 | 14:40.30 | 2:25.02 | 66030 | 76906
7 | 17:05.32 | 3:21.08 | 76907 | 91989
8 | 20:26.40 | 2:33.05 | 91990 | 103469
9 | 22:59.45 | 3:02.27 | 103470 | 117146
10 | 26:01.72 | 2:11.35 | 117147 | 127006
11 | 28:13.32 | 2:43.23 | 127007 | 139254

Range status and errors

Selected range

Filename The Who – Magic Bus The Who On Tour.wav

Peak level 97.7 %
Range quality 100.0 %
Copy CRC 8766BADE
Copy OK

No errors occurred

AccurateRip summary

Track 1 accurately ripped (confidence 5) [45786717]
Track 2 accurately ripped (confidence 6) [0831BBEA]
Track 3 accurately ripped (confidence 6) [45DA9645]
Track 4 accurately ripped (confidence 5) [D2DDB9B6]
Track 5 accurately ripped (confidence 5) [F16FFFA0]
Track 6 accurately ripped (confidence 6) [2A099871]
Track 7 accurately ripped (confidence 6) [79208854]
Track 8 accurately ripped (confidence 5) [FE8DADF5]
Track 9 accurately ripped (confidence 6) [8C89239A]
Track 10 accurately ripped (confidence 5) [5F5F4ECF]
Track 11 accurately ripped (confidence 5) [B08D85A5]

All tracks accurately ripped

End of status report

REM GENRE Rock
REM DATE 1968
REM DISCID 9307400B
REM COMMENT “ExactAudioCopy v0.99pb4”
PERFORMER “The Who”
TITLE “Magic Bus The Who On Tour”
FILE “The Who – Magic Bus The Who On Tour.wav” WAVE
TRACK 01 AUDIO
TITLE “Disguises”
PERFORMER “The Who”
INDEX 01 00:00:00
TRACK 02 AUDIO
TITLE “Run Run Run”
PERFORMER “The Who”
INDEX 00 03:11:25
INDEX 01 03:14:02
TRACK 03 AUDIO
TITLE “Dr. Jekyll & Mr. Hyde”
PERFORMER “The Who”
INDEX 00 05:56:20
INDEX 01 05:58:67
TRACK 04 AUDIO
TITLE “I Can’t Reach You”
PERFORMER “The Who”
INDEX 00 08:22:70
INDEX 01 08:25:72
TRACK 05 AUDIO
TITLE “Our Love Was, Is”
PERFORMER “The Who”
INDEX 00 11:28:32
INDEX 01 11:31:12
TRACK 06 AUDIO
TITLE “Call Me Lightning”
PERFORMER “The Who”
INDEX 00 14:38:22
INDEX 01 14:40:30
TRACK 07 AUDIO
TITLE “Magic Bus”
PERFORMER “The Who”
INDEX 00 17:02:22
INDEX 01 17:05:32
TRACK 08 AUDIO
TITLE “Someone’s Coming”
PERFORMER “The Who”
INDEX 00 20:23:42
INDEX 01 20:26:40
TRACK 09 AUDIO
TITLE “Doctor, Doctor”
PERFORMER “The Who”
INDEX 00 22:56:32
INDEX 01 22:59:45
TRACK 10 AUDIO
TITLE “Bucket T.”
PERFORMER “The Who”
INDEX 00 25:59:22
INDEX 01 26:01:72
TRACK 11 AUDIO
TITLE “Pictures of Lily”
PERFORMER “The Who”
INDEX 00 28:10:50
INDEX 01 28:13:32


Leave a Reply

Your email address will not be published. Required fields are marked *

This site uses Akismet to reduce spam. Learn how your comment data is processed.