The Who – Live From Toronto




Artist: The Who
Year: 1983/2006
Genre: Rock
Notes: Discogs
Add. Notes:
Cover incl.: Yes
Encoder: FLAC
Bitrate: ~800 kBit/s (44.1 kHz/16 Bit/s)
Log & Cue incl.: Yes
Size: 612,8 MB
Password: “slam” (without ” “)


All Downloads/Hosters are compatible

Download 1
KatFile.com
Turbobit.net
FileFactory.com
Rapidgator.net
Download 2
KatFile.com
Turbobit.net
FileFactory.com
Rapidgator.net

Tracklist:

1-1 My Generation 2:48
1-2 I Can't Explain 2:30
1-3 Dangerous 3:39
1-4 Sister Disco 5:12
1-5 The Quiet One 4:22
1-6 It's Hard 4:56
1-7 Eminence Front 5:36
1-8 Baba O'Riley 5:19
1-9 Boris The Spider 3:22
1-10 Drowned 8:11
1-11 Love Ain't For Keeping 2:40
2-1 Pinball Wizard 2:47
2-2 See Me, Feel Me 4:14
2-3 Who Are You 6:27
2-4 5:15 6:27
2-5 Love Reign O'er Me 4:46
2-6 Long Live Rock 5:05
2-7 Won't Get Fooled Again 10:07
2-8 Naked Eye 7:00
2-9 Squeeze Box 2:51
2-10 Young Man Blues 4:37
2-11 Twist And Shout 3:40

EAC-Log, CUE-Sheed & NFO:

Click to open spoiler
Exact Audio Copy V0.99 prebeta 4 from 23. January 2008

EAC extraction logfile from 14. April 2009, 10:38

The Who / Live from Toronto (Disc 1)

Used drive : HL-DT-STDVDRAM GSA-T20N Adapter: 1 ID: 0

Read mode : Secure
Utilize accurate stream : Yes
Defeat audio cache : Yes
Make use of C2 pointers : No

Read offset correction : 667
Overread into Lead-In and Lead-Out : No
Fill up missing offset samples with silence : Yes
Delete leading and trailing silent blocks : No
Null samples used in CRC calculations : Yes
Used interface : Installed external ASPI interface

Used output format : Internal WAV Routines
Sample format : 44.100 Hz; 16 Bit; Stereo

TOC of the extracted CD

Track | Start | Length | Start sector | End sector
———————————————————
1 | 0:00.00 | 2:48.34 | 0 | 12633
2 | 2:48.34 | 2:30.54 | 12634 | 23937
3 | 5:19.13 | 3:39.48 | 23938 | 40410
4 | 8:58.61 | 5:13.04 | 40411 | 63889
5 | 14:11.65 | 4:22.47 | 63890 | 83586
6 | 18:34.37 | 4:57.04 | 83587 | 105865
7 | 23:31.41 | 5:36.71 | 105866 | 131136
8 | 29:08.37 | 5:19.62 | 131137 | 155123
9 | 34:28.24 | 3:22.31 | 155124 | 170304
10 | 37:50.55 | 8:11.55 | 170305 | 207184
11 | 46:02.35 | 2:40.45 | 207185 | 219229

Range status and errors

Selected range

Filename The Who – Live from Toronto (Disc 1).wav

Peak level 98.8 %
Range quality 100.0 %
Copy CRC B9AFF9F2
Copy OK

No errors occurred

AccurateRip summary

Track 1 not present in database
Track 2 not present in database
Track 3 not present in database
Track 4 not present in database
Track 5 not present in database
Track 6 not present in database
Track 7 not present in database
Track 8 not present in database
Track 9 not present in database
Track 10 not present in database
Track 11 not present in database

None of the tracks are present in the AccurateRip database

End of status report

Exact Audio Copy V0.99 prebeta 4 from 23. January 2008

EAC extraction logfile from 14. April 2009, 10:55

The Who / Live from Toronto (Disc 2)

Used drive : HL-DT-STDVDRAM GSA-T20N Adapter: 1 ID: 0

Read mode : Secure
Utilize accurate stream : Yes
Defeat audio cache : Yes
Make use of C2 pointers : No

Read offset correction : 667
Overread into Lead-In and Lead-Out : No
Fill up missing offset samples with silence : Yes
Delete leading and trailing silent blocks : No
Null samples used in CRC calculations : Yes
Used interface : Installed external ASPI interface

Used output format : Internal WAV Routines
Sample format : 44.100 Hz; 16 Bit; Stereo

TOC of the extracted CD

Track | Start | Length | Start sector | End sector
———————————————————
1 | 0:00.00 | 2:47.51 | 0 | 12575
2 | 2:47.51 | 4:14.56 | 12576 | 31681
3 | 7:02.32 | 6:28.16 | 31682 | 60797
4 | 13:30.48 | 6:27.70 | 60798 | 89892
5 | 19:58.43 | 4:47.04 | 89893 | 111421
6 | 24:45.47 | 5:06.03 | 111422 | 134374
7 | 29:51.50 | 10:07.67 | 134375 | 179966
8 | 39:59.42 | 7:00.56 | 179967 | 211522
9 | 47:00.23 | 2:52.02 | 211523 | 224424
10 | 49:52.25 | 4:38.03 | 224425 | 245277
11 | 54:30.28 | 3:40.66 | 245278 | 261843

Range status and errors

Selected range

Filename The Who – Live from Toronto (Disc 2).wav

Peak level 98.8 %
Range quality 100.0 %
Copy CRC 842D6921
Copy OK

No errors occurred

AccurateRip summary

Track 1 not present in database
Track 2 not present in database
Track 3 not present in database
Track 4 not present in database
Track 5 not present in database
Track 6 not present in database
Track 7 not present in database
Track 8 not present in database
Track 9 not present in database
Track 10 not present in database
Track 11 not present in database

None of the tracks are present in the AccurateRip database

End of status report

REM GENRE Rock
REM DATE 2006
REM DISCID 710B6B0B
REM COMMENT “ExactAudioCopy v0.99pb4”
PERFORMER “The Who”
TITLE “Live From Toronto (Disc 1)”
FILE “The Who – Live From Toronto (Disc 1).wav” WAVE
TRACK 01 AUDIO
TITLE “My Generation”
PERFORMER “The Who”
INDEX 01 00:00:00
TRACK 02 AUDIO
TITLE “I Can’t Explain”
PERFORMER “The Who”
INDEX 01 02:48:34
TRACK 03 AUDIO
TITLE “Dangerous”
PERFORMER “The Who”
INDEX 01 05:19:13
TRACK 04 AUDIO
TITLE “Sister Disco”
PERFORMER “The Who”
INDEX 01 08:58:61
TRACK 05 AUDIO
TITLE “The Quiet One”
PERFORMER “The Who”
INDEX 01 14:11:65
TRACK 06 AUDIO
TITLE “It’s Hard”
PERFORMER “The Who”
INDEX 01 18:34:37
TRACK 07 AUDIO
TITLE “Eminence Front”
PERFORMER “The Who”
INDEX 01 23:31:41
TRACK 08 AUDIO
TITLE “Baba O’Riley”
PERFORMER “The Who”
INDEX 01 29:08:37
TRACK 09 AUDIO
TITLE “Boris The Spider”
PERFORMER “The Who”
INDEX 01 34:28:24
TRACK 10 AUDIO
TITLE “Drowned”
PERFORMER “The Who”
INDEX 01 37:50:55
TRACK 11 AUDIO
TITLE “Love Ain’t For Keepin'”
PERFORMER “The Who”
INDEX 01 46:02:35

REM GENRE Rock
REM DATE 2006
REM DISCID 8D0DA30B
REM COMMENT “ExactAudioCopy v0.99pb4”
PERFORMER “The Who”
TITLE “Live From Toronto (Disc 2)”
FILE “The Who – Live From Toronto (Disc 2).wav” WAVE
TRACK 01 AUDIO
TITLE “Pinball Wizard”
PERFORMER “The Who”
INDEX 01 00:00:00
TRACK 02 AUDIO
TITLE “See Me, Feel Me”
PERFORMER “The Who”
INDEX 01 02:47:51
TRACK 03 AUDIO
TITLE “Who Are You”
PERFORMER “The Who”
INDEX 01 07:02:32
TRACK 04 AUDIO
TITLE “5:15”
PERFORMER “The Who”
INDEX 01 13:30:48
TRACK 05 AUDIO
TITLE “Love, Reign O’er Me”
PERFORMER “The Who”
INDEX 01 19:58:43
TRACK 06 AUDIO
TITLE “Long Live Rock”
PERFORMER “The Who”
INDEX 01 24:45:47
TRACK 07 AUDIO
TITLE “Won’t Get Fooled Again”
PERFORMER “The Who”
INDEX 01 29:51:50
TRACK 08 AUDIO
TITLE “Naked Eye”
PERFORMER “The Who”
INDEX 01 39:59:42
TRACK 09 AUDIO
TITLE “Squeeze Box”
PERFORMER “The Who”
INDEX 01 47:00:23
TRACK 10 AUDIO
TITLE “Young Man Blues”
PERFORMER “The Who”
INDEX 01 49:52:25
TRACK 11 AUDIO
TITLE “Twist And Shout”
PERFORMER “The Who”
INDEX 01 54:30:28


0

Publication author

offline 11 hours

Chaos

3
Comments: 3Publics: 3189Registration: 02-02-2019
Spread the Download

Leave a Reply

Your email address will not be published. Required fields are marked *

Enter the text from the image below
 

This site uses Akismet to reduce spam. Learn how your comment data is processed.