The Who – Live At The Royal Albert Hall




Artist: The Who
Year: 2003
Genre: Rock
Notes: Discogs
Add. Notes:
Cover incl.: Yes
Encoder: FLAC
Bitrate: ~800 kBit/s (44.1 kHz/16 Bit/s)
Log & Cue incl.: Yes
Size: 1068 MB
Password: “slam” (without ” “)


All Downloads/Hosters are compatible

Download 1
KatFile.com
Turbobit.net
Rapidgator.net
Usersdrive.com
Download 2
KatFile.com
Turbobit.net
Rapidgator.net
Usersdrive.com

Tracklist:

1-01- Can't Explain - 2:51
1-02- Anyway, Anyhow, Anywhere - 4:33
1-03- Pinball Wizard - 3:44
1-04- Relay - 8:14
1-05- My Wife - 6:38
1-06- The Kids Are Alright - 6:12
1-07- Mary Anne With The Shaky Hand - 4:12
1-08- Bargain - 6:52
1-09- Magic Bus - 10:05
1-10- Who Are You - 7:05
1-11- Baba O'Riley - 5:48
2-01- Drowned - 6:38
2-02- Heart To Hang Onto - 4:41
2-03- So Sad About Us - 3:19
2-04- I'm One - 2:51
2-05- Getting In Tune - 6:21
2-06- Behind Blue Eyes - 3:48
2-07- You Better You Bet - 5:46
2-08- The Real Me - 5:27
2-09- 5:15 - 11:40
2-10- Won't Get Fooled Again - 9:12
2-11- Substitute - 3:20
2-12- Let's See Action - 5:15
2-13- My Generation - 5:30
2-14- See Me, Feel Me/Listening To You - 5:04
3-01- I'm Free - 2:49
3-02- I Don't Even Know Myself - 4:43
3-03- Summertime Blues - 3:20
3-04- Young Man Blues - 5:54

EAC-Log, CUE-Sheed & NFO:

Click to open spoiler
Exact Audio Copy V0.99 prebeta 4 from 23. January 2008

EAC extraction logfile from 10. October 2008, 0:29

The Who / Live At The Royal Albert Hall (Disc 1)

Used drive : HL-DT-STDVDRAM GSA-T20N Adapter: 1 ID: 0

Read mode : Secure
Utilize accurate stream : Yes
Defeat audio cache : Yes
Make use of C2 pointers : No

Read offset correction : 667
Overread into Lead-In and Lead-Out : No
Fill up missing offset samples with silence : Yes
Delete leading and trailing silent blocks : No
Null samples used in CRC calculations : Yes
Used interface : Installed external ASPI interface

Used output format : Internal WAV Routines
Sample format : 44.100 Hz; 16 Bit; Stereo

TOC of the extracted CD

Track | Start | Length | Start sector | End sector
———————————————————
1 | 0:00.00 | 2:51.55 | 0 | 12879
2 | 2:51.55 | 4:33.22 | 12880 | 33376
3 | 7:25.02 | 3:44.66 | 33377 | 50242
4 | 11:09.68 | 8:14.14 | 50243 | 87306
5 | 19:24.07 | 6:38.68 | 87307 | 117224
6 | 26:03.00 | 6:12.26 | 117225 | 145150
7 | 32:15.26 | 4:12.67 | 145151 | 164117
8 | 36:28.18 | 6:52.14 | 164118 | 195031
9 | 43:20.32 | 10:05.74 | 195032 | 240480
10 | 53:26.31 | 7:05.20 | 240481 | 272375
11 | 60:31.51 | 5:50.50 | 272376 | 298675

Range status and errors

Selected range

Filename The Who – Live At The Royal Albert Hall (Disc 1).wav

Peak level 99.5 %
Range quality 100.0 %
Copy CRC 67A35417
Copy OK

No errors occurred

End of status report

Exact Audio Copy V0.99 prebeta 4 from 23. January 2008

EAC extraction logfile from 10. October 2008, 0:52

Who / Live at the Royal Albert Hall (Disc 2)

Used drive : HL-DT-STDVDRAM GSA-T20N Adapter: 1 ID: 0

Read mode : Secure
Utilize accurate stream : Yes
Defeat audio cache : Yes
Make use of C2 pointers : No

Read offset correction : 667
Overread into Lead-In and Lead-Out : No
Fill up missing offset samples with silence : Yes
Delete leading and trailing silent blocks : No
Null samples used in CRC calculations : Yes
Used interface : Installed external ASPI interface

Used output format : Internal WAV Routines
Sample format : 44.100 Hz; 16 Bit; Stereo

TOC of the extracted CD

Track | Start | Length | Start sector | End sector
———————————————————
1 | 0:00.00 | 6:38.32 | 0 | 29881
2 | 6:38.32 | 4:41.17 | 29882 | 50973
3 | 11:19.49 | 3:19.30 | 50974 | 65928
4 | 14:39.04 | 2:51.54 | 65929 | 78807
5 | 17:30.58 | 6:21.56 | 78808 | 107438
6 | 23:52.39 | 3:48.52 | 107439 | 124590
7 | 27:41.16 | 5:46.00 | 124591 | 150540
8 | 33:27.16 | 5:27.43 | 150541 | 175108
9 | 38:54.59 | 11:40.62 | 175109 | 227670
10 | 50:35.46 | 9:12.01 | 227671 | 269071
11 | 59:47.47 | 3:20.66 | 269072 | 284137
12 | 63:08.38 | 5:15.48 | 284138 | 307810
13 | 68:24.11 | 5:30.70 | 307811 | 332630
14 | 73:55.06 | 5:04.73 | 332631 | 355503

Range status and errors

Selected range

Filename Who – Live at the Royal Albert Hall (Disc 2).wav

Peak level 99.8 %
Range quality 100.0 %
Copy CRC 6EBDEFCC
Copy OK

No errors occurred

End of status report

Exact Audio Copy V0.99 prebeta 4 from 23. January 2008

EAC extraction logfile from 10. October 2008, 1:06

Who / Live at the Royal Albert Hall (Disc 3 – Bonus CD)

Used drive : HL-DT-STDVDRAM GSA-T20N Adapter: 1 ID: 0

Read mode : Secure
Utilize accurate stream : Yes
Defeat audio cache : Yes
Make use of C2 pointers : No

Read offset correction : 667
Overread into Lead-In and Lead-Out : No
Fill up missing offset samples with silence : Yes
Delete leading and trailing silent blocks : No
Null samples used in CRC calculations : Yes
Used interface : Installed external ASPI interface

Used output format : Internal WAV Routines
Sample format : 44.100 Hz; 16 Bit; Stereo

TOC of the extracted CD

Track | Start | Length | Start sector | End sector
———————————————————
1 | 0:00.00 | 2:50.67 | 0 | 12816
2 | 2:50.67 | 4:43.29 | 12817 | 34070
3 | 7:34.21 | 3:20.16 | 34071 | 49086
4 | 10:54.37 | 5:56.24 | 49087 | 75810

Range status and errors

Selected range

Filename The Who – Live At The Royal Albert Hall (Disc 3 – Bonus CD).wav

Peak level 99.2 %
Range quality 99.9 %
Copy CRC 02CF647C
Copy OK

No errors occurred

End of status report

REM GENRE ROCK
REM DATE 2003
REM DISCID 8F0F8E0B
REM COMMENT “EXACTAUDIOCOPY V0.99PB4”
PERFORMER “THE WHO”
TITLE “LIVE AT THE ROYAL ALBERT HALL (DISC 1)”
FILE “THE WHO – LIVE AT THE ROYAL ALBERT HALL (DISC 1).WAV” WAVE
TRACK 01 AUDIO
TITLE “I CAN’T EXPLAIN”
PERFORMER “THE WHO”
INDEX 01 00:00:00
TRACK 02 AUDIO
TITLE “ANYWAY, ANYHOW, ANYWHERE”
PERFORMER “THE WHO”
INDEX 01 02:51:55
TRACK 03 AUDIO
TITLE “PINBALL WIZARD”
PERFORMER “THE WHO”
INDEX 01 07:25:02
TRACK 04 AUDIO
TITLE “RELAY”
PERFORMER “THE WHO”
INDEX 01 11:09:68
TRACK 05 AUDIO
TITLE “MY WIFE”
PERFORMER “THE WHO”
INDEX 01 19:24:07
TRACK 06 AUDIO
TITLE “THE KIDS ARE ALRIGHT”
PERFORMER “THE WHO”
INDEX 01 26:03:00
TRACK 07 AUDIO
TITLE “MARY ANNE WITH THE SHAKY HAND”
PERFORMER “THE WHO”
INDEX 01 32:15:26
TRACK 08 AUDIO
TITLE “BARGAIN”
PERFORMER “THE WHO”
INDEX 01 36:28:18
TRACK 09 AUDIO
TITLE “MAGIC BUS”
PERFORMER “THE WHO”
INDEX 01 43:20:32
TRACK 10 AUDIO
TITLE “WHO ARE YOU”
PERFORMER “THE WHO”
INDEX 01 53:26:31
TRACK 11 AUDIO
TITLE “BABA O’RILEY (VIOLIN: NIGEL KENNEDY)”
PERFORMER “THE WHO”
INDEX 01 60:31:51

REM GENRE ROCK
REM DATE 2003
REM DISCID B912840E
REM COMMENT “EXACTAUDIOCOPY V0.99PB4”
PERFORMER “THE WHO”
TITLE “LIVE AT THE ROYAL ALBERT HALL (DISC 2)”
FILE “THE WHO – LIVE AT THE ROYAL ALBERT HALL (DISC 2).WAV” WAVE
TRACK 01 AUDIO
TITLE “DROWNED”
PERFORMER “THE WHO”
INDEX 01 00:00:00
TRACK 02 AUDIO
TITLE “HEART TO HANG ONTO”
PERFORMER “THE WHO”
INDEX 01 06:38:32
TRACK 03 AUDIO
TITLE “SO SAD ABOUT US (PETE TOWNSHEND AND PAUL WELLER)”
PERFORMER “THE WHO”
INDEX 01 11:19:49
TRACK 04 AUDIO
TITLE “I’M ONE (VOCALS: EDDIE VEDDER)”
PERFORMER “THE WHO”
INDEX 01 14:39:04
TRACK 05 AUDIO
TITLE “GETTING IN TUNE (VOCALS: EDDIE VEDDER)”
PERFORMER “THE WHO”
INDEX 01 17:30:58
TRACK 06 AUDIO
TITLE “BEHIND BLUE EYES (VOCALS: BRYAN ADAMS)”
PERFORMER “THE WHO”
INDEX 01 23:52:39
TRACK 07 AUDIO
TITLE “YOU BETTER YOU BET”
PERFORMER “THE WHO”
INDEX 01 27:41:16
TRACK 08 AUDIO
TITLE “THE REAL ME”
PERFORMER “THE WHO”
INDEX 01 33:27:16
TRACK 09 AUDIO
TITLE “5:15”
PERFORMER “THE WHO”
INDEX 01 38:54:59
TRACK 10 AUDIO
TITLE “WON’T GET FOOLED AGAIN (GUITAR: NOEL GALLAGHER)”
PERFORMER “THE WHO”
INDEX 01 50:35:46
TRACK 11 AUDIO
TITLE “SUBSTITUTE (VOCALS: KELLY JONES)”
PERFORMER “THE WHO”
INDEX 01 59:47:47
TRACK 12 AUDIO
TITLE “LET’S SEE ACTION (VOCALS: EDDIE VEDDER WITH ROGER AND PETE)”
PERFORMER “THE WHO”
INDEX 01 63:08:38
TRACK 13 AUDIO
TITLE “MY GENERATION”
PERFORMER “THE WHO”
INDEX 01 68:24:11
TRACK 14 AUDIO
TITLE “SEE ME, FEEL ME – LISTENING TO YOU (WITH EDDIE VEDDER AND BRYAN ADAMS)”
PERFORMER “THE WHO”
INDEX 01 73:55:06

REM GENRE ROCK
REM DATE 2003
REM DISCID 2C03F204
REM COMMENT “EXACTAUDIOCOPY V0.99PB4”
PERFORMER “WHO”
TITLE “LIVE AT THE ROYAL ALBERT HALL (DISC 3 – BONUS CD)”
FILE “THE WHO – LIVE AT THE ROYAL ALBERT HALL (DISC 3 – BONUS CD).WAV” WAVE
TRACK 01 AUDIO
TITLE “I’M FREE”
PERFORMER “THE WHO”
INDEX 01 00:00:00
TRACK 02 AUDIO
TITLE “I DON’T EVEN KNOW MYSELF”
PERFORMER “THE WHO”
INDEX 01 02:50:67
TRACK 03 AUDIO
TITLE “SUMMERTIME BLUES”
PERFORMER “THE WHO”
INDEX 01 07:34:21
TRACK 04 AUDIO
TITLE “YOUNG MAN BLUES”
PERFORMER “THE WHO”
INDEX 01 10:54:37


Leave a Reply

Your email address will not be published. Required fields are marked *

Enter the text from the image below
 

This site uses Akismet to reduce spam. Learn how your comment data is processed.