The Who – Live At The Isle Of Wight Festival 1970




Artist: The Who
Year: 1996
Genre: Rock
Notes: Discogs
Add. Notes:
Cover incl.: Yes
Encoder: FLAC
Bitrate: ~800 kBit/s (44.1 kHz/16 Bit/s)
Log & Cue incl.: Yes
Size: 668,73 MB
Password: “slam” (without ” “)


All Downloads/Hosters are compatible

Download 1
Turbobit.net
KatFile.com
Rapidgator.net
Download 2
Turbobit.net
KatFile.com
Rapidgator.net

Tracklist:

1-01 - Heaven And Hell - 5:17
1-02 - I Can't Explain - 2:46
1-03 - Young Man Blues - 6:07
1-04 - I Don't Even Know Myself - 6:11
1-05 - Water - 10:53
1-06 - Overture - 5:08
1-07 - It's A Boy - 1:34
1-08 - 1921 - 2:28
1-09 - Amazing Journey - 3:19
1-10 - Sparks - 5:10
1-11 - Eyesight To The Blind (The Hawker) - 1:58
1-12 - Christmas - 3:25
2-01 - The Acid Queen - 3:42
2-02 - Pinball Wizard - 2:51
2-03 - Do You Think It's Alright? - 0:23
2-04 - Fiddle About - 1:16
2-05 - Tommy Can You Hear Me? - 0:59
2-06 - There's A Doctor - 0:22
2-07 - Go To The Mirror! - 3:32
2-08 - Smash The Mirror - 1:16
2-09 - Miracle Cure - 0:13
2-10 - I'm Free - 2:25
2-11 - Tommy's Holiday Camp - 1:02
2-12 - We're Not Gonna Take It - 9:37
2-13 - Summertime Blues - 3:24
2-14 - Shakin' All Over / Spoonful / Twist And Shout - 
6:27
2-15 - Substitute - 2:11
2-16 - My Generation - 7:16
2-17 - Naked Eye - 6:34
2-18 - Magic Bus - 4:35

EAC-Log, CUE-Sheed & NFO:

Click to open spoiler
EAC extraction logfile from 15. December 2007, 23:14 for CD
The Who / Live At The Isle Of Wight Festival 1970 (Disc 1)

Used drive : _NEC DVD+-RW ND-6500A Adapter: 0 ID: 0
Read mode : Secure with NO C2, accurate stream, disable cache
Read offset correction : 48
Overread into Lead-In and Lead-Out : No

Used output format : Internal WAV Routines
44.100 Hz; 16 Bit; Stereo

Other options :
Fill up missing offset samples with silence : Yes
Delete leading and trailing silent blocks : No
Installed external ASPI interface

Range status and errors
Selected range
Filename The Who – Live At The Isle Of Wight Festival 1970 (Disc 1).wav

Peak level 100.0 %
Range quality 100.0 %
CRC 4D9BF615
Copy OK

No errors occured

End of status report

EAC extraction logfile from 15. December 2007, 23:33 for CD
The Who / Live At The Isle Of Wight Festival 1970 (Disc 2)

Used drive : _NEC DVD+-RW ND-6500A Adapter: 0 ID: 0
Read mode : Secure with NO C2, accurate stream, disable cache
Read offset correction : 48
Overread into Lead-In and Lead-Out : No

Used output format : Internal WAV Routines
44.100 Hz; 16 Bit; Stereo

Other options :
Fill up missing offset samples with silence : Yes
Delete leading and trailing silent blocks : No
Installed external ASPI interface

Range status and errors
Selected range
Filename The Who – Live At The Isle Of Wight Festival 1970 (Disc 2).wav

Peak level 99.0 %
Range quality 99.9 %
CRC 3588B585
Copy OK

No errors occured

End of status report

REM GENRE rock
REM DATE 1996
REM DISCID A80CB80C
REM COMMENT “ExactAudioCopy v0.95b4”
PERFORMER “The Who”
TITLE “Live At The Isle Of Wight Festival 1970 (Disc 1)”
FILE “The Who – Live At The Isle Of Wight Festival 1970 (Disc 1).wav” WAVE
TRACK 01 AUDIO
TITLE “Heaven And Hell”
PERFORMER “The Who”
INDEX 01 00:00:00
TRACK 02 AUDIO
TITLE “I Can’t Explain”
PERFORMER “The Who”
INDEX 00 04:49:40
INDEX 01 05:17:15
TRACK 03 AUDIO
TITLE “Young Man Blues”
PERFORMER “The Who”
INDEX 00 07:41:07
INDEX 01 08:02:70
TRACK 04 AUDIO
TITLE “I Don’t Even Know Myself”
PERFORMER “The Who”
INDEX 00 13:41:15
INDEX 01 14:09:55
TRACK 05 AUDIO
TITLE “Water”
PERFORMER “The Who”
INDEX 00 19:21:65
INDEX 01 20:21:05
TRACK 06 AUDIO
TITLE “Overture”
PERFORMER “The Who”
INDEX 00 29:25:67
INDEX 01 31:14:40
TRACK 07 AUDIO
TITLE “It’s A Boy”
PERFORMER “The Who”
INDEX 01 36:22:60
TRACK 08 AUDIO
TITLE “1921”
PERFORMER “The Who”
INDEX 01 37:56:37
TRACK 09 AUDIO
TITLE “Amazing Journey”
PERFORMER “The Who”
INDEX 01 40:24:10
TRACK 10 AUDIO
TITLE “Sparks”
PERFORMER “The Who”
INDEX 01 43:43:17
TRACK 11 AUDIO
TITLE “Eyesight To The Blind (The Hawker)”
PERFORMER “The Who”
INDEX 01 48:53:37
TRACK 12 AUDIO
TITLE “Christmas”
PERFORMER “The Who”
INDEX 01 50:51:65

REM GENRE Rock
REM DATE 1970
REM DISCID E70D9B12
REM COMMENT “ExactAudioCopy v0.95b4”
PERFORMER “The Who”
TITLE “Live At The Isle Of Wight Festival 1970 (Disc 2)”
FILE “The Who – Live At The Isle Of Wight Festival 1970 (Disc 2).wav” WAVE
TRACK 01 AUDIO
TITLE “The Acid Queen”
PERFORMER “The Who”
INDEX 01 00:00:00
TRACK 02 AUDIO
TITLE “Pinball Wizard”
PERFORMER “The Who”
INDEX 01 03:41:45
TRACK 03 AUDIO
TITLE “Do You Think It’s Alright?”
PERFORMER “The Who”
INDEX 01 06:32:15
TRACK 04 AUDIO
TITLE “Fiddle About”
PERFORMER “The Who”
INDEX 01 06:54:60
TRACK 05 AUDIO
TITLE “Tommy Can You Hear Me?”
PERFORMER “The Who”
INDEX 01 08:10:57
TRACK 06 AUDIO
TITLE “There’s A Doctor”
PERFORMER “The Who”
INDEX 01 09:09:25
TRACK 07 AUDIO
TITLE “Go To The Mirror”
PERFORMER “The Who”
INDEX 01 09:31:50
TRACK 08 AUDIO
TITLE “Smash The Mirror”
PERFORMER “The Who”
INDEX 01 13:03:40
TRACK 09 AUDIO
TITLE “Miracle Cure”
PERFORMER “The Who”
INDEX 01 14:20:02
TRACK 10 AUDIO
TITLE “I’m Free”
PERFORMER “The Who”
INDEX 01 14:33:20
TRACK 11 AUDIO
TITLE “Tommy’s Holiday Camp”
PERFORMER “The Who”
INDEX 01 16:58:02
TRACK 12 AUDIO
TITLE “We’re Not Gonna Take It”
PERFORMER “The Who”
INDEX 01 17:59:62
TRACK 13 AUDIO
TITLE “Summertime Blues”
PERFORMER “The Who”
INDEX 01 27:37:10
TRACK 14 AUDIO
TITLE “Shakin’ All Over-Spoonful-Twist And Shout”
PERFORMER “The Who”
INDEX 01 31:01:15
TRACK 15 AUDIO
TITLE “Substitute”
PERFORMER “The Who”
INDEX 01 37:28:40
TRACK 16 AUDIO
TITLE “My Generation”
PERFORMER “The Who”
INDEX 01 39:39:12
TRACK 17 AUDIO
TITLE “Naked Eye”
PERFORMER “The Who”
INDEX 01 46:54:70
TRACK 18 AUDIO
TITLE “Magic Bus”
PERFORMER “The Who”
INDEX 01 53:28:55


Leave a Reply

Your email address will not be published. Required fields are marked *

Enter the text from the image below
 

This site uses Akismet to reduce spam. Learn how your comment data is processed.