The Who – Live At Leeds (Remastered)




[Total: 0    Average: 0/5]

Artist: The Who
Year: 1970/1995
Genre: Rock
Notes: Discogs
Add. Notes: Remastered
Cover incl.: Yes
Encoder: FLAC
Bitrate: ~900 kBit/s (44.1 kHz/16 Bit/s)
Log & Cue incl.: Yes
Size: 478,24 MB
Password: “slam” (without ” “)


All Downloads/Hosters are compatible

Download 1
Share-online.biz
KatFile.com
Rapidgator.net
Download 2
Share-online.biz
KatFile.com
Rapidgator.net

Tracklist:

1 - Heaven And Hell - 4:30
2 - I Can't Explain - 2:16
3 - Fortune Teller - 2:34
4 - Tattoo - 2:51
5 - Young Man Blues - 4:56
6 - Substitute - 2:07
7 - Happy Jack - 2:13
8 - I'm A Boy - 2:40
9 - A Quick One, While He's Away - 8:25
10 - Amazing Journey / Sparks - 7:34
11 - Summertime Blues - 3:20
12 - Shakin' All Over - 4:15
13 - My Generation - 14:45
14 - Magic Bus - 7:22

EAC-Log, CUE-Sheed & NFO:

Click to open spoiler
Exact Audio Copy V0.99 prebeta 4 from 23. January 2008

EAC extraction logfile from 3. July 2008, 18:58

The Who / Live At Leeds

Used drive : HL-DT-STDVDRAM GSA-T20N Adapter: 1 ID: 0

Read mode : Secure
Utilize accurate stream : Yes
Defeat audio cache : Yes
Make use of C2 pointers : No

Read offset correction : 667
Overread into Lead-In and Lead-Out : No
Fill up missing offset samples with silence : Yes
Delete leading and trailing silent blocks : No
Null samples used in CRC calculations : Yes
Used interface : Installed external ASPI interface

Used output format : Internal WAV Routines
Sample format : 44.100 Hz; 16 Bit; Stereo

TOC of the extracted CD

Track | Start | Length | Start sector | End sector
———————————————————
1 | 0:00.00 | 4:50.32 | 0 | 21781
2 | 4:50.32 | 2:58.53 | 21782 | 35184
3 | 7:49.10 | 2:34.52 | 35185 | 46786
4 | 10:23.62 | 3:42.33 | 46787 | 63469
5 | 14:06.20 | 5:51.65 | 63470 | 89859
6 | 19:58.10 | 2:06.72 | 89860 | 99381
7 | 22:05.07 | 2:13.45 | 99382 | 109401
8 | 24:18.52 | 4:41.68 | 109402 | 130544
9 | 29:00.45 | 8:41.32 | 130545 | 169651
10 | 37:42.02 | 7:54.70 | 169652 | 205271
11 | 45:36.72 | 3:22.03 | 205272 | 220424
12 | 48:59.00 | 4:34.35 | 220425 | 241009
13 | 53:33.35 | 15:46.45 | 241010 | 312004
14 | 69:20.05 | 7:46.60 | 312005 | 347014

Range status and errors

Selected range

Filename The Who – Live At Leeds.wav

Peak level 99.6 %
Range quality 100.0 %
Copy CRC 4591A8AE
Copy OK

No errors occurred

AccurateRip summary

Track 1 accurately ripped (confidence 24) [AC078A27]
Track 2 accurately ripped (confidence 25) [B33AE1AF]
Track 3 accurately ripped (confidence 25) [2A1DDDD5]
Track 4 accurately ripped (confidence 25) [71638B6C]
Track 5 accurately ripped (confidence 24) [46A1EF1C]
Track 6 accurately ripped (confidence 25) [C7CD7C02]
Track 7 accurately ripped (confidence 25) [DFCE753F]
Track 8 accurately ripped (confidence 25) [9142BA6F]
Track 9 accurately ripped (confidence 25) [0B2A185B]
Track 10 accurately ripped (confidence 25) [3A8143DB]
Track 11 accurately ripped (confidence 25) [EE144E71]
Track 12 accurately ripped (confidence 25) [3163E621]
Track 13 accurately ripped (confidence 23) [48AF9E03]
Track 14 accurately ripped (confidence 24) [C1BE346B]

All tracks accurately ripped

End of status report

REM GENRE Rock
REM DATE 1970
REM DISCID AF12120E
REM COMMENT “ExactAudioCopy v0.99pb4”
PERFORMER “The Who”
TITLE “Live At Leeds”
FILE “The Who – Live At Leeds.wav” WAVE
TRACK 01 AUDIO
TITLE “Heaven And Hell”
PERFORMER “The Who”
INDEX 01 00:00:00
TRACK 02 AUDIO
TITLE “I Can’t Explain”
PERFORMER “The Who”
INDEX 01 04:50:32
TRACK 03 AUDIO
TITLE “Fortune Teller”
PERFORMER “The Who”
INDEX 00 07:12:47
INDEX 01 07:49:10
TRACK 04 AUDIO
TITLE “Tattoo”
PERFORMER “The Who”
INDEX 01 10:23:62
TRACK 05 AUDIO
TITLE “Young Man Blues”
PERFORMER “The Who”
INDEX 00 13:24:00
INDEX 01 14:06:20
TRACK 06 AUDIO
TITLE “Substitute”
PERFORMER “The Who”
INDEX 00 19:12:65
INDEX 01 19:58:10
TRACK 07 AUDIO
TITLE “Happy Jack”
PERFORMER “The Who”
INDEX 01 22:05:07
TRACK 08 AUDIO
TITLE “I’m A Boy”
PERFORMER “The Who”
INDEX 01 24:18:52
TRACK 09 AUDIO
TITLE “A Quick One, While He’s Away”
PERFORMER “The Who”
INDEX 00 27:04:10
INDEX 01 29:00:45
TRACK 10 AUDIO
TITLE “Amazing Journey/Sparks”
PERFORMER “The Who”
INDEX 01 37:42:02
TRACK 11 AUDIO
TITLE “Summertime Blues”
PERFORMER “The Who”
INDEX 00 45:26:42
INDEX 01 45:36:72
TRACK 12 AUDIO
TITLE “Shakin’ All Over”
PERFORMER “The Who”
INDEX 01 48:59:00
TRACK 13 AUDIO
TITLE “My Generation”
PERFORMER “The Who”
INDEX 01 53:33:35
TRACK 14 AUDIO
TITLE “Magic Bus”
PERFORMER “The Who”
INDEX 00 68:26:32
INDEX 01 69:20:05


Spread the Download

Leave a Reply

Your email address will not be published. Required fields are marked *

Enter the text from the image below
 

This site uses Akismet to reduce spam. Learn how your comment data is processed.