The Who – Live At Leeds (Remastered Deluxe Edition)




[Total: 0    Average: 0/5]

Artist: The Who
Year: 1970/2002
Genre: Rock
Notes: Discogs
Add. Notes: Remastered Deluxe Edition
Cover incl.: Yes
Encoder: FLAC
Bitrate: ~900 kBit/s (44.1 kHz/16 Bit/s)
Log & Cue incl.: Yes
Size: 817,5 MB
Password: “slam” (without ” “)


All Downloads/Hosters are compatible

Download 1
KatFile.com
Turbobit.net
FileFactory.com
Rapidgator.net
Download 2
KatFile.com
Turbobit.net
FileFactory.com
Rapidgator.net

Tracklist:

1-01 - Heaven And Hell - 5:06
1-02 - I Can't Explain - 2:26
1-03 - Fortune Teller - 2:34
1-04 - Tattoo - 3:00
1-05 - Young Man Blues - 5:14
1-06 - Substitute - 2:07
1-07 - Happy Jack - 2:13
1-08 - I'm A Boy - 2:45
1-09 - A Quick One, While He's Away - 8:39
1-10 - Summertime Blues - 3:21
1-11 - Shakin' All Over - 4:34
1-12 - My Generation - 15:24
1-13 - Magic Bus - 7:54

Tommy
2-01 - Overture - 6:51
2-02 - It's A Boy - 0:31
2-03 - 1921 - 2:25
2-04 - Amazing Journey - 3:17
2-05 - Sparks - 4:21
2-06 - Eyesight To The Blind (The Hawker) - 1:58
2-07 - Christmas - 3:18
2-08 - The Acid Queen - 3:34
2-09 - Pinball Wizard - 2:52
2-10 - Do You Think It's Alright? - 0:21
2-11 - Fiddle About - 1:13
2-12 - Tommy Can You Hear Me? - 0:55
2-13 - There's A Doctor - 0:22
2-14 - Go To The Mirror - 3:24
2-15 - Smash The Mirror! - 1:18
2-16 - Miracle Cure - 0:12
2-17 - Sally Simpson - 4:00
2-18 - I'm Free - 2:38
2-19 - Tommy's Holiday Camp - 1:00
2-20 - We're Not Gonna Take It - 8:47

EAC-Log, CUE-Sheed & NFO:

Click to open spoiler
Exact Audio Copy V0.99 prebeta 4 from 23. January 2008

EAC extraction logfile from 14. April 2009, 21:02

The Who / Live At Leeds – Deluxe Edition (Disc 1)

Used drive : HL-DT-STDVDRAM GSA-T20N Adapter: 1 ID: 0

Read mode : Secure
Utilize accurate stream : Yes
Defeat audio cache : Yes
Make use of C2 pointers : No

Read offset correction : 667
Overread into Lead-In and Lead-Out : No
Fill up missing offset samples with silence : Yes
Delete leading and trailing silent blocks : No
Null samples used in CRC calculations : Yes
Used interface : Installed external ASPI interface

Used output format : Internal WAV Routines
Sample format : 44.100 Hz; 16 Bit; Stereo

TOC of the extracted CD

Track | Start | Length | Start sector | End sector
———————————————————
1 | 0:00.00 | 5:07.62 | 0 | 23086
2 | 5:07.62 | 3:13.46 | 23087 | 37607
3 | 8:21.33 | 2:34.44 | 37608 | 49201
4 | 10:56.02 | 3:42.49 | 49202 | 65900
5 | 14:38.51 | 6:11.54 | 65901 | 93779
6 | 20:50.30 | 2:07.08 | 93780 | 103312
7 | 22:57.38 | 2:13.44 | 103313 | 113331
8 | 25:11.07 | 7:47.12 | 113332 | 148368
9 | 32:58.19 | 8:52.36 | 148369 | 188304
10 | 41:50.55 | 3:21.69 | 188305 | 203448
11 | 45:12.49 | 4:34.60 | 203449 | 224058
12 | 49:47.34 | 15:49.50 | 224059 | 295283
13 | 65:37.09 | 7:56.53 | 295284 | 331036

Range status and errors

Selected range

Filename The Who – Live At Leeds – Deluxe Edition (Disc 1).wav

Peak level 99.9 %
Range quality 99.9 %
Copy CRC 90692396
Copy OK

No errors occurred

AccurateRip summary

Track 1 accurately ripped (confidence 29) [B95A4583]
Track 2 accurately ripped (confidence 29) [5B16B15F]
Track 3 accurately ripped (confidence 29) [237E3CD8]
Track 4 accurately ripped (confidence 29) [420A8761]
Track 5 accurately ripped (confidence 29) [DF3EC83A]
Track 6 accurately ripped (confidence 30) [3B56ACA9]
Track 7 accurately ripped (confidence 29) [CF4E95BE]
Track 8 accurately ripped (confidence 29) [89E5E31B]
Track 9 accurately ripped (confidence 28) [6267F06D]
Track 10 accurately ripped (confidence 29) [96A76490]
Track 11 accurately ripped (confidence 27) [1EF86C0F]
Track 12 accurately ripped (confidence 27) [F22D3154]
Track 13 accurately ripped (confidence 28) [C2620746]

All tracks accurately ripped

End of status report

Exact Audio Copy V0.99 prebeta 4 from 23. January 2008

EAC extraction logfile from 14. April 2009, 21:39

The Who / Live At Leeds – Deluxe Edition (Disc 2)

Used drive : HL-DT-STDVDRAM GSA-T20N Adapter: 1 ID: 0

Read mode : Secure
Utilize accurate stream : Yes
Defeat audio cache : Yes
Make use of C2 pointers : No

Read offset correction : 667
Overread into Lead-In and Lead-Out : No
Fill up missing offset samples with silence : Yes
Delete leading and trailing silent blocks : No
Null samples used in CRC calculations : Yes
Used interface : Installed external ASPI interface

Used output format : Internal WAV Routines
Sample format : 44.100 Hz; 16 Bit; Stereo

TOC of the extracted CD

Track | Start | Length | Start sector | End sector
———————————————————
1 | 0:00.00 | 6:52.36 | 0 | 30935
2 | 6:52.36 | 0:31.33 | 30936 | 33293
3 | 7:23.69 | 2:25.66 | 33294 | 44234
4 | 9:49.60 | 3:17.66 | 44235 | 59075
5 | 13:07.51 | 4:22.24 | 59076 | 78749
6 | 17:30.00 | 1:58.45 | 78750 | 87644
7 | 19:28.45 | 3:18.28 | 87645 | 102522
8 | 22:46.73 | 3:34.70 | 102523 | 118642
9 | 26:21.68 | 2:52.20 | 118643 | 131562
10 | 29:14.13 | 0:22.13 | 131563 | 133225
11 | 29:36.26 | 1:13.29 | 133226 | 138729
12 | 30:49.55 | 0:55.32 | 138730 | 142886
13 | 31:45.12 | 0:23.16 | 142887 | 144627
14 | 32:08.28 | 3:24.37 | 144628 | 159964
15 | 35:32.65 | 1:18.52 | 159965 | 165866
16 | 36:51.42 | 0:12.63 | 165867 | 166829
17 | 37:04.30 | 4:00.42 | 166830 | 184871
18 | 41:04.72 | 2:38.57 | 184872 | 196778
19 | 43:43.54 | 1:00.33 | 196779 | 201311
20 | 44:44.12 | 8:49.41 | 201312 | 241027

Range status and errors

Selected range

Filename The Who – Live At Leeds – Deluxe Edition (Disc 2).wav

Peak level 99.2 %
Range quality 100.0 %
Copy CRC 0CADCD21
Copy OK

No errors occurred

AccurateRip summary

Track 1 accurately ripped (confidence 15) [365DA939]
Track 2 accurately ripped (confidence 15) [10EAC478]
Track 3 accurately ripped (confidence 15) [2F181B7A]
Track 4 accurately ripped (confidence 15) [03CADBAA]
Track 5 accurately ripped (confidence 15) [1B5E121E]
Track 6 accurately ripped (confidence 15) [854C5C74]
Track 7 accurately ripped (confidence 15) [B7FE24BC]
Track 8 accurately ripped (confidence 14) [F4D2A2E7]
Track 9 accurately ripped (confidence 15) [4E084097]
Track 10 accurately ripped (confidence 15) [A1ADAAD0]
Track 11 accurately ripped (confidence 15) [E838E430]
Track 12 accurately ripped (confidence 15) [06C9CDAA]
Track 13 accurately ripped (confidence 15) [9789B5E7]
Track 14 accurately ripped (confidence 15) [BE762093]
Track 15 accurately ripped (confidence 15) [4B3FAC4A]
Track 16 accurately ripped (confidence 15) [02435FC1]
Track 17 accurately ripped (confidence 15) [4E077754]
Track 18 accurately ripped (confidence 15) [4BE2AD0A]
Track 19 accurately ripped (confidence 15) [9F0339B1]
Track 20 accurately ripped (confidence 15) [90B40A99]

All tracks accurately ripped

End of status report

REM GENRE Rock
REM DATE 1970
REM DISCID BF113D0D
REM COMMENT “ExactAudioCopy v0.99pb4”
PERFORMER “The Who”
TITLE “Live At Leeds – Deluxe Edition (Disc 1)”
FILE “The Who – Live At Leeds – Deluxe Edition (Disc 1).wav” WAVE
TRACK 01 AUDIO
TITLE “Heaven And Hell”
PERFORMER “The Who”
INDEX 01 00:00:00
TRACK 02 AUDIO
TITLE “I Can’t Explain”
PERFORMER “The Who”
INDEX 01 05:07:62
TRACK 03 AUDIO
TITLE “Fortune Teller”
PERFORMER “The Who”
INDEX 00 07:33:71
INDEX 01 08:21:33
TRACK 04 AUDIO
TITLE “Tattoo”
PERFORMER “The Who”
INDEX 01 10:56:02
TRACK 05 AUDIO
TITLE “Young Man Blues”
PERFORMER “The Who”
INDEX 00 13:56:68
INDEX 01 14:38:51
TRACK 06 AUDIO
TITLE “Substitute”
PERFORMER “The Who”
INDEX 00 19:53:02
INDEX 01 20:50:30
TRACK 07 AUDIO
TITLE “Happy Jack”
PERFORMER “The Who”
INDEX 01 22:57:38
TRACK 08 AUDIO
TITLE “I’m A Boy”
PERFORMER “The Who”
INDEX 01 25:11:07
TRACK 09 AUDIO
TITLE “A Quick One, While He’s Away”
PERFORMER “The Who”
INDEX 00 27:56:59
INDEX 01 32:58:19
TRACK 10 AUDIO
TITLE “Summertime Blues”
PERFORMER “The Who”
INDEX 00 41:38:04
INDEX 01 41:50:55
TRACK 11 AUDIO
TITLE “Shakin’ All Over”
PERFORMER “The Who”
INDEX 01 45:12:49
TRACK 12 AUDIO
TITLE “My Generation”
PERFORMER “The Who”
INDEX 01 49:47:34
TRACK 13 AUDIO
TITLE “Magic Bus”
PERFORMER “The Who”
INDEX 00 65:12:05
INDEX 01 65:37:09

REM GENRE Rock
REM DATE 1970
REM DISCID 200C8D14
REM COMMENT “ExactAudioCopy v0.99pb4”
PERFORMER “The Who”
TITLE “Live At Leeds – Deluxe Edition (Disc 2)”
FILE “The Who – Live At Leeds – Deluxe Edition (Disc 2).wav” WAVE
TRACK 01 AUDIO
TITLE “Overture”
PERFORMER “The Who”
INDEX 01 00:00:00
TRACK 02 AUDIO
TITLE “It’s a Boy”
PERFORMER “The Who”
INDEX 01 06:52:36
TRACK 03 AUDIO
TITLE “1921”
PERFORMER “The Who”
INDEX 01 07:23:69
TRACK 04 AUDIO
TITLE “Amazing Journey”
PERFORMER “The Who”
INDEX 01 09:49:60
TRACK 05 AUDIO
TITLE “Sparks”
PERFORMER “The Who”
INDEX 01 13:07:51
TRACK 06 AUDIO
TITLE “Eyesight to the Blind (The Hawker)”
PERFORMER “The Who”
INDEX 01 17:30:00
TRACK 07 AUDIO
TITLE “Christmas”
PERFORMER “The Who”
INDEX 01 19:28:45
TRACK 08 AUDIO
TITLE “The Acid Queen”
PERFORMER “The Who”
INDEX 01 22:46:73
TRACK 09 AUDIO
TITLE “Pinball Wizard”
PERFORMER “The Who”
INDEX 01 26:21:68
TRACK 10 AUDIO
TITLE “Do You Think It’s Alright?”
PERFORMER “The Who”
INDEX 01 29:14:13
TRACK 11 AUDIO
TITLE “Fiddle About”
PERFORMER “The Who”
INDEX 01 29:36:26
TRACK 12 AUDIO
TITLE “Tommy Can You Hear Me?”
PERFORMER “The Who”
INDEX 01 30:49:55
TRACK 13 AUDIO
TITLE “There’s A Doctor”
PERFORMER “The Who”
INDEX 01 31:45:12
TRACK 14 AUDIO
TITLE “Go To The Mirror”
PERFORMER “The Who”
INDEX 01 32:08:28
TRACK 15 AUDIO
TITLE “Smash The Mirror”
PERFORMER “The Who”
INDEX 01 35:32:65
TRACK 16 AUDIO
TITLE “Miracle Cure”
PERFORMER “The Who”
INDEX 01 36:51:42
TRACK 17 AUDIO
TITLE “Sally Simpson”
PERFORMER “The Who”
INDEX 01 37:04:30
TRACK 18 AUDIO
TITLE “I’m Free”
PERFORMER “The Who”
INDEX 01 41:04:72
TRACK 19 AUDIO
TITLE “Tommy’s Holiday Camp”
PERFORMER “The Who”
INDEX 01 43:43:54
TRACK 20 AUDIO
TITLE “We’re Not Gonna Take It”
PERFORMER “The Who”
INDEX 01 44:44:12


Spread the Download

Leave a Reply

Your email address will not be published. Required fields are marked *

Enter the text from the image below
 

This site uses Akismet to reduce spam. Learn how your comment data is processed.