The Who – Join Together




Artist: The Who
Year: 1990
Genre: Rock
Notes: Discogs
Add. Notes:
Cover incl.: Yes
Encoder: FLAC
Bitrate: ~900 kBit/s (44.1 kHz/16 Bit/s)
Log & Cue incl.: Yes
Size: 876 MB
Password: “slam” (without ” “)


All Downloads/Hosters are compatible

Download 1
KatFile.com
Turbobit.net
Rapidgator.net
Turbobit.net
Download 2
KatFile.com
Turbobit.net
Rapidgator.net
Turbobit.net

Tracklist:

1-1 - Overture - 5:26
1-2 - 1921 - 2:51
1-3 - Amazing Journey - 3:06
1-4 - Sparks - 4:35
1-5 - The Hawker (Eyesight To The 
Blind) - 2:14
1-6 - Christmas - 4:24
1-7 - Cousin Kevin - 3:56
1-8 - The Acid Queen - 3:44
1-9 - Pinball Wizard - 4:20
1-10 - Do You Think It's Alright? - 
0:23
1-11 - Fiddle About - 1:38
1-12 - There's A Doctor - 0:21
1-13 - Go To The Mirror - 3:21
1-14 - Smash The Mirror - 1:09
1-15 - Tommy Can You Hear Me? - 
0:57
1-16 - I'm Free - 2:11
1-17 - Miracle Cure - 0:22
1-18 - Sally Simpson - 4:18
1-19 - Sensation - 2:21
1-20 - Tommy's Holiday Camp - 0:55
1-21 - We're Not Gonna Take It! - 
8:42

2-1 - Eminence Front - 5:41
2-2 - Face The Face - 6:11
2-3 - Dig - 3:58
2-4 - I Can See For Miles - 3:44
2-5 - A Little Is Enough - 5:06
2-6 - 5:15 - 5:48
2-7 - Love, Reign O'er Me - 5:57
2-8 - Trick Of The Light - 5:40
2-9 - Rough Boys - 4:34
2-10 - Join Together - 5:12
2-11 - You Better You Bet - 5:34
2-12 - Behind Blue Eyes - 3:43
2-13 - Won't Get Fooled Again - 9:28

EAC-Log, CUE-Sheed & NFO:

Click to open spoiler
Exact Audio Copy V0.99 prebeta 4 from 23. January 2008

EAC extraction logfile from 13. April 2009, 22:51

The Who / Join Together (Disc 1)

Used drive : HL-DT-STDVDRAM GSA-T20N Adapter: 1 ID: 0

Read mode : Secure
Utilize accurate stream : Yes
Defeat audio cache : Yes
Make use of C2 pointers : No

Read offset correction : 667
Overread into Lead-In and Lead-Out : No
Fill up missing offset samples with silence : Yes
Delete leading and trailing silent blocks : No
Null samples used in CRC calculations : Yes
Used interface : Installed external ASPI interface

Used output format : Internal WAV Routines
Sample format : 44.100 Hz; 16 Bit; Stereo

TOC of the extracted CD

Track | Start | Length | Start sector | End sector
———————————————————
1 | 0:00.00 | 5:26.05 | 0 | 24454
2 | 5:26.05 | 2:52.12 | 24455 | 37366
3 | 8:18.17 | 3:07.35 | 37367 | 51426
4 | 11:25.52 | 4:35.65 | 51427 | 72116
5 | 16:01.42 | 2:17.40 | 72117 | 82431
6 | 18:19.07 | 4:26.18 | 82432 | 102399
7 | 22:45.25 | 3:56.27 | 102400 | 120126
8 | 26:41.52 | 3:44.35 | 120127 | 136961
9 | 30:26.12 | 4:20.60 | 136962 | 156521
10 | 34:46.72 | 0:23.30 | 156522 | 158276
11 | 35:10.27 | 1:38.55 | 158277 | 165681
12 | 36:49.07 | 0:21.20 | 165682 | 167276
13 | 37:10.27 | 3:21.73 | 167277 | 182424
14 | 40:32.25 | 1:14.40 | 182425 | 188014
15 | 41:46.65 | 0:57.52 | 188015 | 192341
16 | 42:44.42 | 2:09.40 | 192342 | 202056
17 | 44:54.07 | 0:24.68 | 202057 | 203924
18 | 45:19.00 | 4:18.27 | 203925 | 223301
19 | 49:37.27 | 2:21.48 | 223302 | 233924
20 | 51:59.00 | 0:56.45 | 233925 | 238169
21 | 52:55.45 | 8:44.30 | 238170 | 277499

Range status and errors

Selected range

Filename The Who – Join Together (Disc 1).wav

Peak level 99.3 %
Range quality 100.0 %
Copy CRC 4C97B511
Copy OK

No errors occurred

AccurateRip summary

Track 1 accurately ripped (confidence 3) [355DEC18]
Track 2 accurately ripped (confidence 3) [AC31CAB8]
Track 3 accurately ripped (confidence 3) [4E56856D]
Track 4 accurately ripped (confidence 2) [65DF4E1B]
Track 5 accurately ripped (confidence 3) [1306758D]
Track 6 accurately ripped (confidence 3) [31D88A62]
Track 7 accurately ripped (confidence 3) [CCFFEEF4]
Track 8 accurately ripped (confidence 3) [A7D3956A]
Track 9 accurately ripped (confidence 3) [0FF261B9]
Track 10 accurately ripped (confidence 3) [EE06FBB4]
Track 11 accurately ripped (confidence 2) [B123AE45]
Track 12 accurately ripped (confidence 2) [E1CB6F02]
Track 13 accurately ripped (confidence 2) [DADE67BE]
Track 14 accurately ripped (confidence 2) [E22BE47B]
Track 15 accurately ripped (confidence 3) [14B9F6A5]
Track 16 accurately ripped (confidence 3) [82959D51]
Track 17 accurately ripped (confidence 3) [9636BFDB]
Track 18 accurately ripped (confidence 3) [C5F97225]
Track 19 accurately ripped (confidence 3) [9E58591C]
Track 20 accurately ripped (confidence 3) [C305ADFC]
Track 21 accurately ripped (confidence 2) [409C86FE]

All tracks accurately ripped

End of status report

Exact Audio Copy V0.99 prebeta 4 from 23. January 2008

EAC extraction logfile from 13. April 2009, 22:02

The Who / Join Together (Disc 2)

Used drive : HL-DT-STDVDRAM GSA-T20N Adapter: 1 ID: 0

Read mode : Secure
Utilize accurate stream : Yes
Defeat audio cache : Yes
Make use of C2 pointers : No

Read offset correction : 667
Overread into Lead-In and Lead-Out : No
Fill up missing offset samples with silence : Yes
Delete leading and trailing silent blocks : No
Null samples used in CRC calculations : Yes
Used interface : Installed external ASPI interface

Used output format : Internal WAV Routines
Sample format : 44.100 Hz; 16 Bit; Stereo

TOC of the extracted CD

Track | Start | Length | Start sector | End sector
———————————————————
1 | 0:00.00 | 5:42.57 | 0 | 25706
2 | 5:42.57 | 6:12.05 | 25707 | 53611
3 | 11:54.62 | 3:58.55 | 53612 | 71516
4 | 15:53.42 | 3:42.73 | 71517 | 88239
5 | 19:36.40 | 5:12.32 | 88240 | 111671
6 | 24:48.72 | 5:47.60 | 111672 | 137756
7 | 30:36.57 | 6:27.13 | 137757 | 166794
8 | 37:03.70 | 5:11.12 | 166795 | 190131
9 | 42:15.07 | 4:36.58 | 190132 | 210889
10 | 46:51.65 | 5:14.55 | 210890 | 234494
11 | 52:06.45 | 5:39.35 | 234495 | 259954
12 | 57:46.05 | 3:38.27 | 259955 | 276331
13 | 61:24.32 | 9:29.43 | 276332 | 319049

Range status and errors

Selected range

Filename The Who – Join Together (Disc 2).wav

Peak level 99.3 %
Range quality 100.0 %
Copy CRC 7900D1A3
Copy OK

No errors occurred

AccurateRip summary

Track 1 accurately ripped (confidence 3) [8B5B56E5]
Track 2 accurately ripped (confidence 3) [50F61E8B]
Track 3 accurately ripped (confidence 3) [C3A94E8A]
Track 4 accurately ripped (confidence 3) [0309DEC3]
Track 5 accurately ripped (confidence 3) [6DBDAE87]
Track 6 accurately ripped (confidence 3) [5E143E58]
Track 7 accurately ripped (confidence 3) [C740F20D]
Track 8 accurately ripped (confidence 2) [0D653B1C]
Track 9 accurately ripped (confidence 2) [BD37152D]
Track 10 accurately ripped (confidence 2) [09BE0577]
Track 11 accurately ripped (confidence 3) [496DBDDE]
Track 12 accurately ripped (confidence 2) [FADA3653]
Track 13 accurately ripped (confidence 3) [FFAE6345]

All tracks accurately ripped

End of status report

REM GENRE Rock
REM DATE 1990
REM DISCID 1A0E7415
REM COMMENT “ExactAudioCopy v0.99pb4”
PERFORMER “The Who”
TITLE “Join Together (Disc 1)”
FILE “The Who – Join Together (Disc 1).wav” WAVE
TRACK 01 AUDIO
TITLE “Overture”
PERFORMER “The Who”
INDEX 01 00:00:00
TRACK 02 AUDIO
TITLE “1921”
PERFORMER “The Who”
INDEX 00 05:26:02
INDEX 01 05:26:05
TRACK 03 AUDIO
TITLE “Amazing Journey”
PERFORMER “The Who”
INDEX 00 08:18:15
INDEX 01 08:18:17
TRACK 04 AUDIO
TITLE “Sparks”
PERFORMER “The Who”
INDEX 00 11:25:50
INDEX 01 11:25:52
TRACK 05 AUDIO
TITLE “The Hawker (Eyesight To The Blind)”
PERFORMER “The Who”
INDEX 00 16:01:40
INDEX 01 16:01:42
TRACK 06 AUDIO
TITLE “Christmas”
PERFORMER “The Who”
INDEX 00 18:19:05
INDEX 01 18:19:07
TRACK 07 AUDIO
TITLE “Cousin Kevin”
PERFORMER “The Who”
INDEX 00 22:45:22
INDEX 01 22:45:25
TRACK 08 AUDIO
TITLE “The Acid Queen”
PERFORMER “The Who”
INDEX 00 26:41:50
INDEX 01 26:41:52
TRACK 09 AUDIO
TITLE “Pinball Wizard”
PERFORMER “The Who”
INDEX 00 30:26:10
INDEX 01 30:26:12
TRACK 10 AUDIO
TITLE “Do You Think It’s Alright?”
PERFORMER “The Who”
INDEX 00 34:46:70
INDEX 01 34:46:72
TRACK 11 AUDIO
TITLE “Fiddle About”
PERFORMER “The Who”
INDEX 00 35:10:25
INDEX 01 35:10:27
TRACK 12 AUDIO
TITLE “There’s A Doctor”
PERFORMER “The Who”
INDEX 00 36:49:05
INDEX 01 36:49:07
TRACK 13 AUDIO
TITLE “Go To The Mirror!”
PERFORMER “The Who”
INDEX 00 37:10:25
INDEX 01 37:10:27
TRACK 14 AUDIO
TITLE “Smash The Mirror”
PERFORMER “The Who”
INDEX 00 40:32:22
INDEX 01 40:32:25
TRACK 15 AUDIO
TITLE “Tommy Can You Hear Me”
PERFORMER “The Who”
INDEX 00 41:46:62
INDEX 01 41:46:65
TRACK 16 AUDIO
TITLE “I’m Free”
PERFORMER “The Who”
INDEX 00 42:44:40
INDEX 01 42:44:42
TRACK 17 AUDIO
TITLE “Miracle Cure”
PERFORMER “The Who”
INDEX 00 44:54:05
INDEX 01 44:54:07
TRACK 18 AUDIO
TITLE “Sally Simpson”
PERFORMER “The Who”
INDEX 00 45:18:72
INDEX 01 45:19:00
TRACK 19 AUDIO
TITLE “Sensation”
PERFORMER “The Who”
INDEX 00 49:37:25
INDEX 01 49:37:27
TRACK 20 AUDIO
TITLE “Tommy’s Holiday Camp”
PERFORMER “The Who”
INDEX 00 51:58:72
INDEX 01 51:59:00
TRACK 21 AUDIO
TITLE “We’re Not Gonna Take It!”
PERFORMER “The Who”
INDEX 00 52:55:42
INDEX 01 52:55:45

REM GENRE Rock
REM DATE 1990
REM DISCID C5109E0D
REM COMMENT “ExactAudioCopy v0.99pb4”
PERFORMER “The Who”
TITLE “Join Together (Disc 2)”
FILE “The Who – Join Together (Disc 2).wav” WAVE
TRACK 01 AUDIO
TITLE “Eminence Front”
PERFORMER “The Who”
INDEX 01 00:00:00
TRACK 02 AUDIO
TITLE “Face The Face”
PERFORMER “The Who”
INDEX 00 05:42:55
INDEX 01 05:42:57
TRACK 03 AUDIO
TITLE “Dig”
PERFORMER “The Who”
INDEX 00 11:54:60
INDEX 01 11:54:62
TRACK 04 AUDIO
TITLE “I Can See For Miles”
PERFORMER “The Who”
INDEX 00 15:53:40
INDEX 01 15:53:42
TRACK 05 AUDIO
TITLE “A Little Is Enough”
PERFORMER “The Who”
INDEX 00 19:36:37
INDEX 01 19:36:40
TRACK 06 AUDIO
TITLE “5.15”
PERFORMER “The Who”
INDEX 00 24:48:70
INDEX 01 24:48:72
TRACK 07 AUDIO
TITLE “Love, Reign O’er Me”
PERFORMER “The Who”
INDEX 00 30:36:55
INDEX 01 30:36:57
TRACK 08 AUDIO
TITLE “Trick Of The Light”
PERFORMER “The Who”
INDEX 00 37:03:67
INDEX 01 37:03:70
TRACK 09 AUDIO
TITLE “Rough Boys”
PERFORMER “The Who”
INDEX 00 42:15:05
INDEX 01 42:15:07
TRACK 10 AUDIO
TITLE “Join Together”
PERFORMER “The Who”
INDEX 00 46:51:62
INDEX 01 46:51:65
TRACK 11 AUDIO
TITLE “You Better, You Bet”
PERFORMER “The Who”
INDEX 00 52:06:42
INDEX 01 52:06:45
TRACK 12 AUDIO
TITLE “Behind Blue Eyes”
PERFORMER “The Who”
INDEX 00 57:46:02
INDEX 01 57:46:05
TRACK 13 AUDIO
TITLE “Won’t Get Fooled Again”
PERFORMER “The Who”
INDEX 00 61:24:30
INDEX 01 61:24:32


Leave a Reply

Your email address will not be published. Required fields are marked *

This site uses Akismet to reduce spam. Learn how your comment data is processed.