The Who – Face Dances (Remastered)




[Total: 0    Average: 0/5]

Artist: The Who
Year: 1981/1997
Genre: Rock
Notes: Discogs
Add. Notes: Remastered
Cover incl.: Yes
Encoder: FLAC
Bitrate: ~900 kBit/s (44.1 kHz/16 Bit/s)
Log & Cue incl.: Yes
Size: 414,14 MB
Password: “slam” (without ” “)


All Downloads/Hosters are compatible

Download 1
Share-online.biz
KatFile.com
Rapidgator.net
Download 2
Share-online.biz
KatFile.com
Rapidgator.net

Tracklist:

1 - You Better You Bet - 5:32
2 - Don't Let Go The Coat - 3:45
3 - Cache Cache - 3:52
4 - The Quiet One - 3:08
5 - Did You Steal My Money - 4:14
6 - How Can You Do It Alone - 5:24
7 - Daily Records - 3:23
8 - You - 4:40
9 - Another Tricky Day - 4:51
Plus Previously Unreleased Bonus Tracks:
10 - I Like Nightmares - 3:09
11 - It's In You - 4:59
12 - Somebody Saved Me - 5:31
13 - How Can You Do It Alone (Live) - 5:24
14 - The Quiet One (Live) - 4:28

EAC-Log, CUE-Sheed & NFO:

Click to open spoiler
Exact Audio Copy V0.99 prebeta 4 from 23. January 2008

EAC extraction logfile from 3. October 2008, 20:10

The Who / Face Dances

Used drive : HL-DT-STDVDRAM GSA-T20N Adapter: 1 ID: 0

Read mode : Secure
Utilize accurate stream : Yes
Defeat audio cache : Yes
Make use of C2 pointers : No

Read offset correction : 667
Overread into Lead-In and Lead-Out : No
Fill up missing offset samples with silence : Yes
Delete leading and trailing silent blocks : No
Null samples used in CRC calculations : Yes
Used interface : Installed external ASPI interface

Used output format : Internal WAV Routines
Sample format : 44.100 Hz; 16 Bit; Stereo

TOC of the extracted CD

Track | Start | Length | Start sector | End sector
———————————————————
1 | 0:00.00 | 5:37.15 | 0 | 25289
2 | 5:37.15 | 3:48.57 | 25290 | 42446
3 | 9:25.72 | 3:56.03 | 42447 | 60149
4 | 13:22.00 | 3:09.05 | 60150 | 74329
5 | 16:31.05 | 4:15.35 | 74330 | 93489
6 | 20:46.40 | 5:26.35 | 93490 | 117974
7 | 26:13.00 | 3:25.15 | 117975 | 133364
8 | 29:38.15 | 4:41.55 | 133365 | 154494
9 | 34:19.70 | 4:56.55 | 154495 | 176749
10 | 39:16.50 | 3:11.20 | 176750 | 191094
11 | 42:27.70 | 5:01.27 | 191095 | 213696
12 | 47:29.22 | 5:31.63 | 213697 | 238584
13 | 53:01.10 | 5:27.22 | 238585 | 263131
14 | 58:28.32 | 4:28.65 | 263132 | 283296

Range status and errors

Selected range

Filename The Who – Face Dances.wav

Peak level 97.9 %
Range quality 100.0 %
Copy CRC 2003420B
Copy OK

No errors occurred

End of status report

REM GENRE “Rock & Roll”
REM DATE 1981
REM DISCID CC0EC10E
REM COMMENT “ExactAudioCopy v0.99pb4”
PERFORMER “The Who”
TITLE “Face Dances”
FILE “The Who – Face Dances.wav” WAVE
TRACK 01 AUDIO
TITLE “You Better You Bet”
PERFORMER “The Who”
INDEX 01 00:00:00
TRACK 02 AUDIO
TITLE “Don’t Let Go The Coat”
PERFORMER “The Who”
INDEX 00 05:36:10
INDEX 01 05:37:15
TRACK 03 AUDIO
TITLE “Cache Cache”
PERFORMER “The Who”
INDEX 00 09:23:52
INDEX 01 09:25:72
TRACK 04 AUDIO
TITLE “The Quiet One”
PERFORMER “The Who”
INDEX 00 13:20:65
INDEX 01 13:22:00
TRACK 05 AUDIO
TITLE “Did You Steal My Money”
PERFORMER “The Who”
INDEX 00 16:29:10
INDEX 01 16:31:05
TRACK 06 AUDIO
TITLE “How Can You Do It Alone”
PERFORMER “The Who”
INDEX 01 20:46:40
TRACK 07 AUDIO
TITLE “Daily Records”
PERFORMER “The Who”
INDEX 00 26:11:55
INDEX 01 26:13:00
TRACK 08 AUDIO
TITLE “You”
PERFORMER “The Who”
INDEX 00 29:36:52
INDEX 01 29:38:15
TRACK 09 AUDIO
TITLE “Another Tricky Day”
PERFORMER “The Who”
INDEX 00 34:18:67
INDEX 01 34:19:70
TRACK 10 AUDIO
TITLE “I Like Nightmares”
PERFORMER “The Who”
INDEX 00 39:12:25
INDEX 01 39:16:50
TRACK 11 AUDIO
TITLE “It’s In You”
PERFORMER “The Who”
INDEX 01 42:27:70
TRACK 12 AUDIO
TITLE “Somebody Saved Me”
PERFORMER “The Who”
INDEX 00 47:27:72
INDEX 01 47:29:22
TRACK 13 AUDIO
TITLE “How Can You Do It Alone [live]”
PERFORMER “The Who”
INDEX 01 53:01:10
TRACK 14 AUDIO
TITLE “The Quiet One [live]”
PERFORMER “The Who”
INDEX 01 58:28:32


Spread the Download

Leave a Reply

Your email address will not be published. Required fields are marked *

Enter the text from the image below
 

This site uses Akismet to reduce spam. Learn how your comment data is processed.