The Who – Endless Wire (Special Edition)




Artist: The Who
Year: 2006
Genre: Rock
Notes: Discogs
Add. Notes: Special Edition
Cover incl.: Yes
Encoder: FLAC
Bitrate: ~900 kBit/s (44.1 kHz/16 Bit/s)
Log & Cue incl.: Yes
Size: 389,2 MB
Password: “slam” (without ” “)


All Downloads/Hosters are compatible

Download 1
Turbobit.net
Rapidgator.net
KatFile.com
UploadRar.com
Download 2
Turbobit.net
Rapidgator.net
KatFile.com
UploadRar.com

Tracklist:

1 - Fragments - 3:58
2 - A Man In A Purple Dress - 4:14
3 - Mike Post Theme - 4:28
4 - In The Ether - 3:35
5 - Black Widow's Eyes - 3:07
6 - Two Thousand Years - 2:50
7 - God Speaks Of Marty Robbins - 3:26
8 - It's Not Enough - 4:02
9 - You Stand By Me - 1:36
Wire & Glass - A Mini-Opera
10 - Sound Round - 1:21
11 - Pick Up The Peace - 1:28
12 - Unholy Trinity - 2:07
13 - Trilby's Piano - 2:04
14 - Endless Wire - 1:51
15 - Fragments Of Fragments - 2:23
16 - We Got A Hit - 1:18
17 - They Made My Dream Come True - 1:13
18 - Mirror Door - 4:14
19 - Tea & Theatre - 3:24
20 - We Got A Hit (Extended Version) - 3:03
21 - Endless Wire (Extended Version) - 3:03

EAC-Log, CUE-Sheed & NFO:

Click to open spoiler
Exact Audio Copy V0.99 prebeta 4 from 23. January 2008

EAC extraction logfile from 4. January 2009, 14:15

The Who / Endless Wire

Used drive : HL-DT-STDVDRAM GSA-T20N Adapter: 1 ID: 0

Read mode : Secure
Utilize accurate stream : Yes
Defeat audio cache : Yes
Make use of C2 pointers : No

Read offset correction : 667
Overread into Lead-In and Lead-Out : No
Fill up missing offset samples with silence : Yes
Delete leading and trailing silent blocks : No
Null samples used in CRC calculations : Yes
Used interface : Installed external ASPI interface

Used output format : Internal WAV Routines
Sample format : 44.100 Hz; 16 Bit; Stereo

TOC of the extracted CD

Track | Start | Length | Start sector | End sector
———————————————————
1 | 0:00.00 | 3:57.51 | 0 | 17825
2 | 3:57.51 | 4:14.72 | 17826 | 36947
3 | 8:12.48 | 4:28.29 | 36948 | 57076
4 | 12:41.02 | 3:35.57 | 57077 | 73258
5 | 16:16.59 | 3:07.36 | 73259 | 87319
6 | 19:24.20 | 2:50.63 | 87320 | 100132
7 | 22:15.08 | 3:26.64 | 100133 | 115646
8 | 25:41.72 | 4:02.45 | 115647 | 133841
9 | 29:44.42 | 1:36.03 | 133842 | 141044
10 | 31:20.45 | 1:21.31 | 141045 | 147150
11 | 32:42.01 | 1:28.39 | 147151 | 153789
12 | 34:10.40 | 2:07.51 | 153790 | 163365
13 | 36:18.16 | 2:04.70 | 163366 | 172735
14 | 38:23.11 | 1:51.67 | 172736 | 181127
15 | 40:15.03 | 2:23.12 | 181128 | 191864
16 | 42:38.15 | 1:18.05 | 191865 | 197719
17 | 43:56.20 | 1:13.02 | 197720 | 203196
18 | 45:09.22 | 4:14.00 | 203197 | 222246
19 | 49:23.22 | 3:26.51 | 222247 | 237747
20 | 52:49.73 | 3:04.66 | 237748 | 251613
21 | 55:54.64 | 3:05.18 | 251614 | 265506

Range status and errors

Selected range

Filename The Who – Endless Wire.wav

Peak level 100.0 %
Range quality 100.0 %
Copy CRC 9983776E
Copy OK

No errors occurred

End of status report

REM GENRE Rock
REM DATE 2006
REM DISCID 3F0DCF15
REM COMMENT “ExactAudioCopy v0.99pb4”
PERFORMER “The Who”
TITLE “Endless Wire”
FILE “The Who – Endless Wire.wav” WAVE
TRACK 01 AUDIO
TITLE “Fragments”
PERFORMER “The Who”
INDEX 01 00:00:00
TRACK 02 AUDIO
TITLE “A Man In A Purple Dress”
PERFORMER “The Who”
INDEX 01 03:57:51
TRACK 03 AUDIO
TITLE “Mike Post Theme”
PERFORMER “The Who”
INDEX 01 08:12:48
TRACK 04 AUDIO
TITLE “In The Ether”
PERFORMER “The Who”
INDEX 01 12:41:02
TRACK 05 AUDIO
TITLE “Black Widow’s Eye”
PERFORMER “The Who”
INDEX 01 16:16:59
TRACK 06 AUDIO
TITLE “Two Thousand Years”
PERFORMER “The Who”
INDEX 01 19:24:20
TRACK 07 AUDIO
TITLE “God Speaks Of Marty Robbins”
PERFORMER “The Who”
INDEX 01 22:15:08
TRACK 08 AUDIO
TITLE “It’s Not Enough”
PERFORMER “The Who”
INDEX 01 25:41:72
TRACK 09 AUDIO
TITLE “You Stand By Me”
PERFORMER “The Who”
INDEX 01 29:44:42
TRACK 10 AUDIO
TITLE “Sound Round”
PERFORMER “The Who”
INDEX 01 31:20:45
TRACK 11 AUDIO
TITLE “Pick Up The Peace”
PERFORMER “The Who”
INDEX 01 32:42:01
TRACK 12 AUDIO
TITLE “Unholy Trinity”
PERFORMER “The Who”
INDEX 01 34:10:40
TRACK 13 AUDIO
TITLE “Trilby’s Piano”
PERFORMER “The Who”
INDEX 01 36:18:16
TRACK 14 AUDIO
TITLE “Endless Wire”
PERFORMER “The Who”
INDEX 01 38:23:11
TRACK 15 AUDIO
TITLE “Fragments Of Fragments”
PERFORMER “The Who”
INDEX 01 40:15:03
TRACK 16 AUDIO
TITLE “We Got A Hit”
PERFORMER “The Who”
INDEX 01 42:38:15
TRACK 17 AUDIO
TITLE “They Made My Dream Come True”
PERFORMER “The Who”
INDEX 01 43:56:20
TRACK 18 AUDIO
TITLE “Mirror Door”
PERFORMER “The Who”
INDEX 01 45:09:22
TRACK 19 AUDIO
TITLE “Tea & Theatre”
PERFORMER “The Who”
INDEX 01 49:23:22
TRACK 20 AUDIO
TITLE “We Got A Hit (Extended Version)”
PERFORMER “The Who”
INDEX 01 52:49:73
TRACK 21 AUDIO
TITLE “Endless Wire (Extended Version)”
PERFORMER “The Who”
INDEX 01 55:54:64


Leave a Reply

Your email address will not be published. Required fields are marked *

This site uses Akismet to reduce spam. Learn how your comment data is processed.