The Who – BBC Sessions (Remastered)




[Total: 0    Average: 0/5]

Artist: The Who
Year: 2000
Genre: Rock
Notes: Discogs
Add. Notes: Remastered
Cover incl.: Yes
Encoder: FLAC
Bitrate: ~800 kBit/s (44.1 kHz/16 Bit/s)
Log & Cue incl.: Yes
Size: 436,6 MB
Password: “slam” (without ” “)


All Downloads/Hosters are compatible

Download 1
KatFile.com
Turbobit.net
FileFactory.com
Rapidgator.net
Download 2
KatFile.com
Turbobit.net
FileFactory.com
Rapidgator.net
Download 3
KatFile.com
Turbobit.net
FileFactory.com
Rapidgator.net

Tracklist:

1 My Generation (Radio 1 Jingle) 0:57
2 Anyway, Anyhow, Anywhere 2:44
3 Good Lovin' 1:49
4 Just You And Me, Darling 2:01
5 Leaving Here 2:34
6 My Generation 3:23
7 The Good's Gone 2:59
8 La La La Lies 2:11
9 Substitute 3:30
10 Man With Money 2:31
11 Dancing In The Street 2:23
12 Disguises 2:57
13 I'm A Boy 2:39
14 Run Run Run 3:16
15 Boris The Spider 2:13
16 Happy Jack 2:09
17 See My Way 1:50
18 Pictures Of Lily 2:34
19 A Quick One (While He's Away) 7:01
20 Substitute (2) 2:12
21 The Seeker 3:04
22 I'm Free 2:24
23 Shakin' All Over/Spoonful (Medley) 3:41
24 Relay 4:56
25 Long Live Rock 3:52
26 Boris The Spider (Radio 1 Jingle) 0:10

EAC-Log, CUE-Sheed & NFO:

Click to open spoiler
Exact Audio Copy V0.99 prebeta 4 from 23. January 2008

EAC extraction logfile from 28. May 2009, 1:00

The Who / BBC Sessions

Used drive : HL-DT-STDVDRAM GSA-T20N Adapter: 1 ID: 0

Read mode : Secure
Utilize accurate stream : Yes
Defeat audio cache : Yes
Make use of C2 pointers : No

Read offset correction : 667
Overread into Lead-In and Lead-Out : No
Fill up missing offset samples with silence : Yes
Delete leading and trailing silent blocks : No
Null samples used in CRC calculations : Yes
Used interface : Installed external ASPI interface

Used output format : Internal WAV Routines
Sample format : 44.100 Hz; 16 Bit; Stereo

TOC of the extracted CD

Track | Start | Length | Start sector | End sector
———————————————————
1 | 0:00.00 | 0:59.10 | 0 | 4434
2 | 0:59.10 | 2:44.30 | 4435 | 16764
3 | 3:43.40 | 1:50.10 | 16765 | 25024
4 | 5:33.50 | 2:02.02 | 25025 | 34176
5 | 7:35.52 | 2:35.10 | 34177 | 45811
6 | 10:10.62 | 3:24.43 | 45812 | 61154
7 | 13:35.30 | 2:59.35 | 61155 | 74614
8 | 16:34.65 | 2:26.05 | 74615 | 85569
9 | 19:00.70 | 3:30.50 | 85570 | 101369
10 | 22:31.45 | 2:31.67 | 101370 | 112761
11 | 25:03.37 | 2:24.48 | 112762 | 123609
12 | 27:28.10 | 3:45.55 | 123610 | 140539
13 | 31:13.65 | 2:39.45 | 140540 | 152509
14 | 33:53.35 | 3:17.45 | 152510 | 167329
15 | 37:11.05 | 2:47.37 | 167330 | 179891
16 | 39:58.42 | 2:10.68 | 179892 | 189709
17 | 42:09.35 | 1:50.07 | 189710 | 197966
18 | 43:59.42 | 2:35.28 | 197967 | 209619
19 | 46:34.70 | 7:01.70 | 209620 | 241264
20 | 53:36.65 | 2:14.00 | 241265 | 251314
21 | 55:50.65 | 3:06.20 | 251315 | 265284
22 | 58:57.10 | 2:24.32 | 265285 | 276116
23 | 61:21.42 | 3:41.10 | 276117 | 292701
24 | 65:02.52 | 5:16.60 | 292702 | 316461
25 | 70:19.37 | 3:56.70 | 316462 | 334231
26 | 74:16.32 | 0:10.18 | 334232 | 334999

Range status and errors

Selected range

Filename The Who – BBC Sessions.wav

Peak level 99.9 %
Range quality 100.0 %
Copy CRC B318308A
Copy OK

No errors occurred

AccurateRip summary

Track 1 accurately ripped (confidence 6) [E7CEB597]
Track 2 accurately ripped (confidence 6) [C9BFC95C]
Track 3 accurately ripped (confidence 6) [92642176]
Track 4 accurately ripped (confidence 5) [B98548DD]
Track 5 accurately ripped (confidence 6) [5AC8256D]
Track 6 accurately ripped (confidence 5) [AA9CEA11]
Track 7 accurately ripped (confidence 6) [8032E9A4]
Track 8 accurately ripped (confidence 6) [D33CD58E]
Track 9 accurately ripped (confidence 6) [27793C70]
Track 10 accurately ripped (confidence 6) [2E8C9B8D]
Track 11 accurately ripped (confidence 5) [64F9A893]
Track 12 accurately ripped (confidence 6) [F8793948]
Track 13 accurately ripped (confidence 6) [C72B2745]
Track 14 accurately ripped (confidence 6) [1B9A09FD]
Track 15 accurately ripped (confidence 6) [8BD05ADF]
Track 16 accurately ripped (confidence 6) [1654238A]
Track 17 accurately ripped (confidence 6) [0F5B36FA]
Track 18 accurately ripped (confidence 6) [552107AA]
Track 19 accurately ripped (confidence 6) [78CECD1E]
Track 20 accurately ripped (confidence 6) [42D7A9AD]
Track 21 accurately ripped (confidence 6) [B8D271FF]
Track 22 accurately ripped (confidence 6) [BD0C4DE6]
Track 23 accurately ripped (confidence 6) [DF53E219]
Track 24 accurately ripped (confidence 6) [AE1466F2]
Track 25 accurately ripped (confidence 5) [A77DA13D]
Track 26 accurately ripped (confidence 6) [8FC4E719]

All tracks accurately ripped

End of status report

REM GENRE Rock
REM DATE 2000
REM DISCID 5A11721A
REM COMMENT “ExactAudioCopy v0.99pb4”
PERFORMER “The Who”
TITLE “BBC Sessions”
FILE “The Who – BBC Sessions.wav” WAVE
TRACK 01 AUDIO
TITLE “My Generation (Radio 1 Jingle)”
PERFORMER “The Who”
INDEX 01 00:00:00
TRACK 02 AUDIO
TITLE “Anyway, Anyhow, Anywhere”
PERFORMER “The Who”
INDEX 01 00:59:10
TRACK 03 AUDIO
TITLE “Good Lovin'”
PERFORMER “The Who”
INDEX 00 03:42:70
INDEX 01 03:43:40
TRACK 04 AUDIO
TITLE “Just You And Me, Darling”
PERFORMER “The Who”
INDEX 00 05:32:67
INDEX 01 05:33:50
TRACK 05 AUDIO
TITLE “Leaving Here”
PERFORMER “The Who”
INDEX 00 07:34:50
INDEX 01 07:35:52
TRACK 06 AUDIO
TITLE “My Generation”
PERFORMER “The Who”
INDEX 00 10:10:10
INDEX 01 10:10:62
TRACK 07 AUDIO
TITLE “The Good’s Gone”
PERFORMER “The Who”
INDEX 00 13:34:40
INDEX 01 13:35:30
TRACK 08 AUDIO
TITLE “La La La Lies”
PERFORMER “The Who”
INDEX 01 16:34:65
TRACK 09 AUDIO
TITLE “Substitute”
PERFORMER “The Who”
INDEX 00 18:46:15
INDEX 01 19:00:70
TRACK 10 AUDIO
TITLE “Man With Money”
PERFORMER “The Who”
INDEX 00 22:29:64
INDEX 01 22:31:45
TRACK 11 AUDIO
TITLE “Dancing In The Street”
PERFORMER “The Who”
INDEX 01 25:03:37
TRACK 12 AUDIO
TITLE “Disguises”
PERFORMER “The Who”
INDEX 00 27:27:20
INDEX 01 27:28:10
TRACK 13 AUDIO
TITLE “I’m A Boy”
PERFORMER “The Who”
INDEX 00 30:29:05
INDEX 01 31:13:65
TRACK 14 AUDIO
TITLE “Run Run Run”
PERFORMER “The Who”
INDEX 00 33:52:52
INDEX 01 33:53:35
TRACK 15 AUDIO
TITLE “Boris The Spider”
PERFORMER “The Who”
INDEX 00 37:10:00
INDEX 01 37:11:05
TRACK 16 AUDIO
TITLE “Happy Jack”
PERFORMER “The Who”
INDEX 00 39:24:47
INDEX 01 39:58:42
TRACK 17 AUDIO
TITLE “See My Way”
PERFORMER “The Who”
INDEX 00 42:08:40
INDEX 01 42:09:35
TRACK 18 AUDIO
TITLE “Pictures Of Lily”
PERFORMER “The Who”
INDEX 01 43:59:42
TRACK 19 AUDIO
TITLE “A Quick One (While He’s Away)”
PERFORMER “The Who”
INDEX 00 46:34:10
INDEX 01 46:34:70
TRACK 20 AUDIO
TITLE “Substitute (ver2)”
PERFORMER “The Who”
INDEX 00 53:36:07
INDEX 01 53:36:65
TRACK 21 AUDIO
TITLE “The Seeker”
PERFORMER “The Who”
INDEX 00 55:49:30
INDEX 01 55:50:65
TRACK 22 AUDIO
TITLE “I’m Free”
PERFORMER “The Who”
INDEX 00 58:55:27
INDEX 01 58:57:10
TRACK 23 AUDIO
TITLE “Shakin’ All Over/Spoonful (Medley)”
PERFORMER “The Who”
INDEX 01 61:21:42
TRACK 24 AUDIO
TITLE “Relay”
PERFORMER “The Who”
INDEX 01 65:02:52
TRACK 25 AUDIO
TITLE “Long Live Rock”
PERFORMER “The Who”
INDEX 00 69:59:22
INDEX 01 70:19:37
TRACK 26 AUDIO
TITLE “Boris The Spider (Radio 1 Jingle)”
PERFORMER “The Who”
INDEX 01 74:16:32


Spread the Download

Leave a Reply

Your email address will not be published. Required fields are marked *

Enter the text from the image below
 

This site uses Akismet to reduce spam. Learn how your comment data is processed.