The Who – A Quick One (Stereo Mix) (Remastered)




Artist: The Who
Year: 1996/1995
Genre: Rock
Notes: Discogs
Add. Notes: Remastered
Cover incl.: Yes
Encoder: FLAC
Bitrate: ~900 kBit/s (44.1 kHz/16 Bit/s)
Log & Cue incl.: Yes
Size: 379,31 MB
Password: “slam” (without ” “)


All Downloads/Hosters are compatible

Download 1
NitroFlare.com
KatFile.com
Turbobit.net
Rapidgator.net
UploadRar.com
Download 2
NitroFlare.com
KatFile.com
Turbobit.net
Rapidgator.net
UploadRar.com

Tracklist:

1 - Run Run Run - 2:42
2 - Boris The Spider - 2:28
3 - I Need You - 2:24
4 - Whiskey Man - 2:57
5 - Heatwave - 1:54
6 - Cobwebs And Strange - 2:29
7 - Don't Look Away - 2:51
8 - See My Way - 1:52
9 - So Sad About Us - 3:01
10 - A Quick One, While He's Away - 9:10
11 - Batman - 1:34
12 - Bucket T - 2:07
13 - Barbara Ann - 1:59
14 - Disguises - 3:10
15 - Doctor, Doctor - 2:59
16 - I've Been Away - 2:07
17 - In The City - 2:21
18 - Happy Jack (Acoustic Version) - 2:51
19 - Man With The Money - 2:45
20 - My Generation / Land Of Hope And Glory - 2:03

EAC-Log, CUE-Sheed & NFO:

Click to open spoiler
Exact Audio Copy V0.99 prebeta 4 from 23. January 2008

EAC extraction logfile from 27. May 2009, 23:33

The Who / A Quick One (Stereo Mix)

Used drive : HL-DT-STDVDRAM GSA-T20N Adapter: 1 ID: 0

Read mode : Secure
Utilize accurate stream : Yes
Defeat audio cache : Yes
Make use of C2 pointers : No

Read offset correction : 667
Overread into Lead-In and Lead-Out : No
Fill up missing offset samples with silence : Yes
Delete leading and trailing silent blocks : No
Null samples used in CRC calculations : Yes
Used interface : Installed external ASPI interface

Used output format : Internal WAV Routines
Sample format : 44.100 Hz; 16 Bit; Stereo

TOC of the extracted CD

Track | Start | Length | Start sector | End sector
———————————————————
1 | 0:00.00 | 2:54.03 | 0 | 13052
2 | 2:54.03 | 2:29.23 | 13053 | 24250
3 | 5:23.26 | 2:24.16 | 24251 | 35066
4 | 7:47.42 | 2:56.65 | 35067 | 48331
5 | 10:44.32 | 1:54.22 | 48332 | 56903
6 | 12:38.54 | 2:32.15 | 56904 | 68318
7 | 15:10.69 | 2:53.10 | 68319 | 81303
8 | 18:04.04 | 1:52.48 | 81304 | 89751
9 | 19:56.52 | 3:04.25 | 89752 | 103576
10 | 23:01.02 | 9:13.61 | 103577 | 145112
11 | 32:14.63 | 1:34.30 | 145113 | 152192
12 | 33:49.18 | 2:09.12 | 152193 | 161879
13 | 35:58.30 | 2:04.45 | 161880 | 171224
14 | 38:03.00 | 3:20.50 | 171225 | 186274
15 | 41:23.50 | 2:59.35 | 186275 | 199734
16 | 44:23.10 | 2:08.16 | 199735 | 209350
17 | 46:31.26 | 2:22.16 | 209351 | 220016
18 | 48:53.42 | 2:51.71 | 220017 | 232912
19 | 51:45.38 | 2:48.49 | 232913 | 245561
20 | 54:34.12 | 2:05.57 | 245562 | 254993

Range status and errors

Selected range

Filename The Who – A Quick One (Stereo Mix).wav

Peak level 100.0 %
Range quality 99.9 %
Copy CRC 96AC9A1D
Copy OK

No errors occurred

End of status report

REM GENRE Rock
REM DATE 1966
REM DISCID 260D4714
REM COMMENT “ExactAudioCopy v0.99pb4”
PERFORMER “The Who”
TITLE “A Quick One (Stereo Mix)”
FILE “The Who – A Quick One (Stereo Mix).wav” WAVE
TRACK 01 AUDIO
TITLE “Run Run Run”
PERFORMER “The Who”
INDEX 01 00:00:00
TRACK 02 AUDIO
TITLE “Boris The Spider”
PERFORMER “The Who”
INDEX 00 02:53:71
INDEX 01 02:54:03
TRACK 03 AUDIO
TITLE “I Need You”
PERFORMER “The Who”
INDEX 00 05:23:19
INDEX 01 05:23:26
TRACK 04 AUDIO
TITLE “Whiskey Man”
PERFORMER “The Who”
INDEX 00 07:46:72
INDEX 01 07:47:42
TRACK 05 AUDIO
TITLE “Heatwave”
PERFORMER “The Who”
INDEX 00 10:42:72
INDEX 01 10:44:32
TRACK 06 AUDIO
TITLE “Cobwebs And Strange”
PERFORMER “The Who”
INDEX 00 12:37:08
INDEX 01 12:38:54
TRACK 07 AUDIO
TITLE “Don’t Look Away”
PERFORMER “The Who”
INDEX 00 15:09:73
INDEX 01 15:10:69
TRACK 08 AUDIO
TITLE “See My Way”
PERFORMER “The Who”
INDEX 00 18:03:17
INDEX 01 18:04:04
TRACK 09 AUDIO
TITLE “So Sad About Us”
PERFORMER “The Who”
INDEX 00 19:55:43
INDEX 01 19:56:52
TRACK 10 AUDIO
TITLE “A Quick One, While He’s Away”
PERFORMER “The Who”
INDEX 00 22:58:50
INDEX 01 23:01:02
TRACK 11 AUDIO
TITLE “Batman”
PERFORMER “The Who”
INDEX 00 32:10:01
INDEX 01 32:14:63
TRACK 12 AUDIO
TITLE “Bucket T”
PERFORMER “The Who”
INDEX 00 33:49:11
INDEX 01 33:49:18
TRACK 13 AUDIO
TITLE “Barbara Ann”
PERFORMER “The Who”
INDEX 01 35:58:30
TRACK 14 AUDIO
TITLE “Disguises”
PERFORMER “The Who”
INDEX 00 38:02:14
INDEX 01 38:03:00
TRACK 15 AUDIO
TITLE “Doctor, Doctor”
PERFORMER “The Who”
INDEX 00 41:22:11
INDEX 01 41:23:50
TRACK 16 AUDIO
TITLE “I’ve Been Away”
PERFORMER “The Who”
INDEX 01 44:23:10
TRACK 17 AUDIO
TITLE “In The City”
PERFORMER “The Who”
INDEX 00 46:30:59
INDEX 01 46:31:26
TRACK 18 AUDIO
TITLE “Happy Jack (Acoustic Version)”
PERFORMER “The Who”
INDEX 01 48:53:42
TRACK 19 AUDIO
TITLE “Man With The Money”
PERFORMER “The Who”
INDEX 01 51:45:38
TRACK 20 AUDIO
TITLE “My Generation/Land Of Hope And Glory”
PERFORMER “The Who”
INDEX 01 54:34:12


Leave a Reply

Your email address will not be published. Required fields are marked *

This site uses Akismet to reduce spam. Learn how your comment data is processed.