The Who – A Quick One (Mono Mix) (Remastered)




Artist: The Who
Year: 1966/1995
Genre: Rock
Notes: Discogs
Add. Notes: Remastered
Cover incl.: Yes
Encoder: FLAC
Bitrate: ~700 kBit/s (44.1 kHz/16 Bit/s)
Log & Cue incl.: Yes
Size: 270,41 MB
Password: “slam” (without ” “)


All Downloads/Hosters are compatible

Download 1
NitroFlare.com
KatFile.com
Turbobit.net
Rapidgator.net
UploadRar.com
Download 2
NitroFlare.com
KatFile.com
Turbobit.net
Rapidgator.net
UploadRar.com

Tracklist:

1 - Run Run Run - 2:42
2 - Boris The Spider - 2:28
3 - I Need You - 2:24
4 - Whiskey Man - 2:57
5 - Heatwave - 1:54
6 - Cobwebs And Strange - 2:29
7 - Don't Look Away - 2:51
8 - See My Way - 1:52
9 - So Sad About Us - 3:01
10 - A Quick One, While He's Away - 9:10
11 - Batman - 1:34
12 - Bucket T - 2:07
13 - Barbara Ann - 1:59
14 - Disguises - 3:10
15 - Doctor, Doctor - 2:59
16 - I've Been Away - 2:07
17 - In The City - 2:21
18 - Happy Jack (Acoustic Version) - 2:51
19 - Man With The Money - 2:45
20 - My Generation / Land Of Hope And Glory - 2:03

EAC-Log, CUE-Sheed & NFO:

Click to open spoiler
Exact Audio Copy V0.99 prebeta 4 from 23. January 2008

EAC extraction logfile from 25. June 2008, 1:49

The Who / A Quick One (Mono Mix)

Used drive : HL-DT-STDVDRAM GSA-T20N Adapter: 1 ID: 0

Read mode : Secure
Utilize accurate stream : Yes
Defeat audio cache : Yes
Make use of C2 pointers : No

Read offset correction : 667
Overread into Lead-In and Lead-Out : No
Fill up missing offset samples with silence : Yes
Delete leading and trailing silent blocks : No
Null samples used in CRC calculations : Yes
Used interface : Installed external ASPI interface

Used output format : Internal WAV Routines
Sample format : 44.100 Hz; 16 Bit; Stereo

TOC of the extracted CD

Track | Start | Length | Start sector | End sector
———————————————————
1 | 0:00.00 | 2:44.45 | 0 | 12344
2 | 2:44.45 | 2:29.40 | 12345 | 23559
3 | 5:14.10 | 2:25.22 | 23560 | 34456
4 | 7:39.32 | 2:58.03 | 34457 | 47809
5 | 10:37.35 | 1:57.30 | 47810 | 56614
6 | 12:34.65 | 2:31.67 | 56615 | 68006
7 | 15:06.57 | 2:54.50 | 68007 | 81106
8 | 18:01.32 | 1:53.43 | 81107 | 89624
9 | 19:55.00 | 3:04.35 | 89625 | 103459
10 | 22:59.35 | 9:11.10 | 103460 | 144794
11 | 32:10.45 | 1:37.12 | 144795 | 152081
12 | 33:47.57 | 2:12.10 | 152082 | 161991
13 | 35:59.67 | 1:59.35 | 161992 | 170951
14 | 37:59.27 | 3:11.38 | 170952 | 185314
15 | 41:10.65 | 2:59.22 | 185315 | 198761
16 | 44:10.12 | 2:08.38 | 198762 | 208399
17 | 46:18.50 | 2:21.62 | 208400 | 219036
18 | 48:40.37 | 2:55.15 | 219037 | 232176
19 | 51:35.52 | 2:45.40 | 232177 | 244591
20 | 54:21.17 | 2:04.53 | 244592 | 253944

Range status and errors

Selected range

Filename The Who – A Quick One.wav

Peak level 98.6 %
Range quality 100.0 %
Copy CRC 7F96C9D6
Copy OK

No errors occurred

AccurateRip summary

Track 1 accurately ripped (confidence 3) [0582866B]
Track 2 accurately ripped (confidence 3) [9ACE8026]
Track 3 accurately ripped (confidence 3) [B382C50A]
Track 4 accurately ripped (confidence 3) [3864C447]
Track 5 accurately ripped (confidence 3) [76515B75]
Track 6 accurately ripped (confidence 3) [022EF501]
Track 7 accurately ripped (confidence 3) [22B76F05]
Track 8 accurately ripped (confidence 3) [72B68CCC]
Track 9 accurately ripped (confidence 3) [3A61E2CF]
Track 10 accurately ripped (confidence 3) [19D63957]
Track 11 accurately ripped (confidence 3) [353D5934]
Track 12 accurately ripped (confidence 3) [6078D426]
Track 13 accurately ripped (confidence 3) [07C17320]
Track 14 accurately ripped (confidence 3) [BADB2204]
Track 15 accurately ripped (confidence 3) [19A99286]
Track 16 accurately ripped (confidence 3) [7B45E584]
Track 17 accurately ripped (confidence 3) [D4164FF9]
Track 18 accurately ripped (confidence 3) [0C08E7F1]
Track 19 accurately ripped (confidence 3) [25D2FF69]
Track 20 accurately ripped (confidence 3) [43AD0117]

All tracks accurately ripped

End of status report

REM GENRE Rock
REM DATE 1966
REM DISCID 170D3914
REM COMMENT “ExactAudioCopy v0.99pb4”
PERFORMER “The Who”
TITLE “A Quick One (Mono Mix)”
FILE “The Who – A Quick One (Mono Mix).wav” WAVE
TRACK 01 AUDIO
TITLE “Run Run Run”
PERFORMER “The Who”
INDEX 01 00:00:00
TRACK 02 AUDIO
TITLE “Boris The Spider”
PERFORMER “The Who”
INDEX 00 02:43:10
INDEX 01 02:44:45
TRACK 03 AUDIO
TITLE “I Need You”
PERFORMER “The Who”
INDEX 00 05:13:30
INDEX 01 05:14:10
TRACK 04 AUDIO
TITLE “Whiskey Man”
PERFORMER “The Who”
INDEX 00 07:39:10
INDEX 01 07:39:32
TRACK 05 AUDIO
TITLE “Heatwave”
PERFORMER “The Who”
INDEX 00 10:36:57
INDEX 01 10:37:35
TRACK 06 AUDIO
TITLE “Cobwebs And Strange”
PERFORMER “The Who”
INDEX 00 12:32:37
INDEX 01 12:34:65
TRACK 07 AUDIO
TITLE “Don’t Look Away”
PERFORMER “The Who”
INDEX 00 15:04:17
INDEX 01 15:06:57
TRACK 08 AUDIO
TITLE “See My Way”
PERFORMER “The Who”
INDEX 00 17:58:35
INDEX 01 18:01:32
TRACK 09 AUDIO
TITLE “So Sad About Us”
PERFORMER “The Who”
INDEX 00 19:54:15
INDEX 01 19:55:00
TRACK 10 AUDIO
TITLE “A Quick One, While He’s Away”
PERFORMER “The Who”
INDEX 00 22:56:32
INDEX 01 22:59:35
TRACK 11 AUDIO
TITLE “Batman”
PERFORMER “The Who”
INDEX 00 32:09:55
INDEX 01 32:10:45
TRACK 12 AUDIO
TITLE “Bucket T”
PERFORMER “The Who”
INDEX 00 33:45:37
INDEX 01 33:47:57
TRACK 13 AUDIO
TITLE “Barbara Ann”
PERFORMER “The Who”
INDEX 00 35:54:72
INDEX 01 35:59:67
TRACK 14 AUDIO
TITLE “Disguises”
PERFORMER “The Who”
INDEX 01 37:59:27
TRACK 15 AUDIO
TITLE “Doctor, Doctor”
PERFORMER “The Who”
INDEX 00 41:09:67
INDEX 01 41:10:65
TRACK 16 AUDIO
TITLE “I’ve Been Away”
PERFORMER “The Who”
INDEX 01 44:10:12
TRACK 17 AUDIO
TITLE “In The City”
PERFORMER “The Who”
INDEX 00 46:18:22
INDEX 01 46:18:50
TRACK 18 AUDIO
TITLE “Happy Jack”
PERFORMER “The Who”
INDEX 00 48:40:02
INDEX 01 48:40:37
TRACK 19 AUDIO
TITLE “Man With The Money”
PERFORMER “The Who”
INDEX 00 51:32:40
INDEX 01 51:35:52
TRACK 20 AUDIO
TITLE “My Generation/Land Of Hope And Glory”
PERFORMER “The Who”
INDEX 01 54:21:17


Leave a Reply

Your email address will not be published. Required fields are marked *

This site uses Akismet to reduce spam. Learn how your comment data is processed.