The Undertones – The Undertones




[Total: 0    Average: 0/5]

Artist: The Undertones
Year: 1987/2004
Genre: Punk
Notes: Discogs
Add. Notes:
Cover incl.: Yes
Encoder: FLAC
Bitrate: ~900 kBit/s (44.1 kHz/16 Bit/s)
Log & Cue incl.: Yes
Size: 366,47 MB
Password: “slam” (without ” “)


All Downloads/Hosters are compatible

Download 1
Share-online.biz
Rapidgator.net
KatFile.com
UploadRar.com
Download 2
Share-online.biz
Rapidgator.net
KatFile.com
UploadRar.com

Tracklist:

1 - Family Entertainment - 2:43
2 - Girls Don't Like It - 2:18
3 - Male Model - 1:58
4 - I Gotta Getta - 1:54
5 - Teenage Kicks - 2:28
6 - Wrong Way - 1:27
7 - Jump Boys - 2:41
8 - Here Comes The Summer (Original Version) - 1:45
9 - Get Over You - 2:46
10 - Billy's Third - 1:57
11 - Jimmy Jimmy - 2:44
12 - True Confessions - 2:23
13 - (She's A) Runaround - 1:50
14 - I Know A Girl - 2:38
15 - Listening In - 2:26
16 - Casbah Rock - 0:56
Bonus Tracks
17 - Smarter Than You - 1:39
18 - True Confessions - 1:56
19 - Emergency Cases - 1:58
20 - Really Really - 1:52
21 - She Can Only Say No - 0:54
22 - Mars Bars - 2:10
23 - One Way Love - 2:16
24 - Top Twenty - 2:14
25 - You've Got My Number (Why Don't You Use It!) - 
2:40
26 - Let's Talk About Girls - 3:35

EAC-Log, CUE-Sheed & NFO:

Click to open spoiler
Exact Audio Copy V0.99 prebeta 4 from 23. January 2008

EAC extraction logfile from 23. April 2008, 22:19

The Undertones / The Undertones

Used drive : _NEC DVD_RW ND-3550A Adapter: 5 ID: 0

Read mode : Secure
Utilize accurate stream : Yes
Defeat audio cache : Yes
Make use of C2 pointers : No

Read offset correction : 48
Overread into Lead-In and Lead-Out : No
Fill up missing offset samples with silence : Yes
Delete leading and trailing silent blocks : No
Null samples used in CRC calculations : Yes
Used interface : Native Win32 interface for Win NT & 2000

Used output format : Internal WAV Routines
Sample format : 44.100 Hz; 16 Bit; Stereo

TOC of the extracted CD

Track | Start | Length | Start sector | End sector
———————————————————
1 | 0:00.00 | 2:43.12 | 0 | 12236
2 | 2:43.12 | 2:18.68 | 12237 | 22654
3 | 5:02.05 | 1:58.37 | 22655 | 31541
4 | 7:00.42 | 1:54.33 | 31542 | 40124
5 | 8:55.00 | 2:28.12 | 40125 | 51236
6 | 11:23.12 | 1:27.35 | 51237 | 57796
7 | 12:50.47 | 2:41.58 | 57797 | 69929
8 | 15:32.30 | 1:45.20 | 69930 | 77824
9 | 17:17.50 | 2:46.25 | 77825 | 90299
10 | 20:04.00 | 1:57.60 | 90300 | 99134
11 | 22:01.60 | 2:44.72 | 99135 | 111506
12 | 24:46.57 | 2:23.20 | 111507 | 122251
13 | 27:10.02 | 1:50.28 | 122252 | 130529
14 | 29:00.30 | 2:38.30 | 130530 | 142409
15 | 31:38.60 | 2:26.37 | 142410 | 153396
16 | 34:05.22 | 0:56.70 | 153397 | 157666
17 | 35:02.17 | 1:39.08 | 157667 | 165099
18 | 36:41.25 | 1:56.10 | 165100 | 173809
19 | 38:37.35 | 1:58.70 | 173810 | 182729
20 | 40:36.30 | 1:52.32 | 182730 | 191161
21 | 42:28.62 | 0:54.05 | 191162 | 195216
22 | 43:22.67 | 2:10.08 | 195217 | 204974
23 | 45:33.00 | 2:16.30 | 204975 | 215204
24 | 47:49.30 | 2:14.47 | 215205 | 225301
25 | 50:04.02 | 2:40.35 | 225302 | 237336
26 | 52:44.37 | 3:35.70 | 237337 | 253531

Range status and errors

Selected range

Filename D:\Downloads\The Undertones-The Undertones\The Undertones – The Undertones.wav

Peak level 100.0 %
Range quality 99.9 %
Copy CRC 73B70B85
Copy OK

No errors occurred

AccurateRip summary

Track 1 accurately ripped (confidence 5) [2855C692]
Track 2 accurately ripped (confidence 5) [7BB029C3]
Track 3 accurately ripped (confidence 5) [03F274FF]
Track 4 accurately ripped (confidence 5) [8C088340]
Track 5 accurately ripped (confidence 5) [0D0A5782]
Track 6 accurately ripped (confidence 5) [8975CC14]
Track 7 accurately ripped (confidence 5) [25891D94]
Track 8 accurately ripped (confidence 5) [D55F88DF]
Track 9 accurately ripped (confidence 5) [98A4EB80]
Track 10 accurately ripped (confidence 5) [B3342846]
Track 11 accurately ripped (confidence 5) [195BE8B8]
Track 12 accurately ripped (confidence 5) [5AA38238]
Track 13 accurately ripped (confidence 5) [44166C5C]
Track 14 accurately ripped (confidence 5) [C8B06598]
Track 15 accurately ripped (confidence 5) [7322EE06]
Track 16 accurately ripped (confidence 5) [012C1FC7]
Track 17 accurately ripped (confidence 4) [9CB62398]
Track 18 accurately ripped (confidence 4) [BDB7BD76]
Track 19 accurately ripped (confidence 4) [4B12FE36]
Track 20 accurately ripped (confidence 4) [68600D3C]
Track 21 accurately ripped (confidence 4) [1ADCD364]
Track 22 accurately ripped (confidence 4) [F050E494]
Track 23 accurately ripped (confidence 4) [A95AFD84]
Track 24 accurately ripped (confidence 4) [93E37FB6]
Track 25 accurately ripped (confidence 4) [D7DA3CC4]
Track 26 accurately ripped (confidence 4) [3947064C]

All tracks accurately ripped

End of status report

REM GENRE Punk
REM DATE 2004
REM DISCID 470D341A
REM COMMENT “ExactAudioCopy v0.99pb4”
PERFORMER “The Undertones”
TITLE “The Undertones”
FILE “The Undertones – The Undertones.ape” WAVE
TRACK 01 AUDIO
TITLE “Family Entertainment”
PERFORMER “The Undertones”
INDEX 01 00:00:00
TRACK 02 AUDIO
TITLE “Girls Don’t Like It”
PERFORMER “The Undertones”
INDEX 00 02:38:72
INDEX 01 02:43:12
TRACK 03 AUDIO
TITLE “Male Model”
PERFORMER “The Undertones”
INDEX 00 05:01:25
INDEX 01 05:02:05
TRACK 04 AUDIO
TITLE “I Gotta Getta”
PERFORMER “The Undertones”
INDEX 00 06:57:57
INDEX 01 07:00:42
TRACK 05 AUDIO
TITLE “Teenage Kicks”
PERFORMER “The Undertones”
INDEX 00 08:54:35
INDEX 01 08:55:00
TRACK 06 AUDIO
TITLE “Wrong Way”
PERFORMER “The Undertones”
INDEX 00 11:21:05
INDEX 01 11:23:12
TRACK 07 AUDIO
TITLE “Jump Boys”
PERFORMER “The Undertones”
INDEX 00 12:48:60
INDEX 01 12:50:47
TRACK 08 AUDIO
TITLE “Here Comes The Summer”
PERFORMER “The Undertones”
INDEX 00 15:31:00
INDEX 01 15:32:30
TRACK 09 AUDIO
TITLE “Get Over You”
PERFORMER “The Undertones”
INDEX 00 17:15:52
INDEX 01 17:17:50
TRACK 10 AUDIO
TITLE “Billy’s Third”
PERFORMER “The Undertones”
INDEX 00 20:01:65
INDEX 01 20:04:00
TRACK 11 AUDIO
TITLE “Jimmy Jimmy”
PERFORMER “The Undertones”
INDEX 00 22:00:67
INDEX 01 22:01:60
TRACK 12 AUDIO
TITLE “True Confessions”
PERFORMER “The Undertones”
INDEX 00 24:43:65
INDEX 01 24:46:57
TRACK 13 AUDIO
TITLE “She’s A Run Around”
PERFORMER “The Undertones”
INDEX 00 27:09:45
INDEX 01 27:10:02
TRACK 14 AUDIO
TITLE “I Know A Girl”
PERFORMER “The Undertones”
INDEX 00 28:59:62
INDEX 01 29:00:30
TRACK 15 AUDIO
TITLE “Listening In”
PERFORMER “The Undertones”
INDEX 00 31:36:10
INDEX 01 31:38:60
TRACK 16 AUDIO
TITLE “Casbah Rock”
PERFORMER “The Undertones”
INDEX 00 34:03:57
INDEX 01 34:05:22
TRACK 17 AUDIO
TITLE “Smarter Than You [Bonus Track]”
PERFORMER “The Undertones”
INDEX 00 34:53:62
INDEX 01 35:02:17
TRACK 18 AUDIO
TITLE “True Confessions [Bonus Track]”
PERFORMER “The Undertones”
INDEX 00 36:38:27
INDEX 01 36:41:25
TRACK 19 AUDIO
TITLE “Emergency Cases [Bonus Track]”
PERFORMER “The Undertones”
INDEX 00 38:34:55
INDEX 01 38:37:35
TRACK 20 AUDIO
TITLE “Really Really [Bonus Track]”
PERFORMER “The Undertones”
INDEX 00 40:34:00
INDEX 01 40:36:30
TRACK 21 AUDIO
TITLE “She Can Only Say No [Bonus Track]”
PERFORMER “The Undertones”
INDEX 00 42:28:15
INDEX 01 42:28:62
TRACK 22 AUDIO
TITLE “Mars Bars [Bonus Track]”
PERFORMER “The Undertones”
INDEX 00 43:20:70
INDEX 01 43:22:67
TRACK 23 AUDIO
TITLE “One Way Love [Bonus Track]”
PERFORMER “The Undertones”
INDEX 00 45:31:15
INDEX 01 45:33:00
TRACK 24 AUDIO
TITLE “Top Twenty [Bonus Track]”
PERFORMER “The Undertones”
INDEX 00 47:46:62
INDEX 01 47:49:30
TRACK 25 AUDIO
TITLE “You’ve Got My Number (Why Don’t You Use It!) [Bonus Track]”
PERFORMER “The Undertones”
INDEX 00 50:01:05
INDEX 01 50:04:02
TRACK 26 AUDIO
TITLE “Let’s Talk About Girls [Bonus Track]”
PERFORMER “The Undertones”
INDEX 00 52:42:17
INDEX 01 52:44:37


Spread the Download

Leave a Reply

Your email address will not be published. Required fields are marked *

Enter the text from the image below
 

This site uses Akismet to reduce spam. Learn how your comment data is processed.