The Undertones – Get What You Need




Artist: The Undertones
Year: 2003
Genre: Punk
Notes: Discogs
Add. Notes:
Cover incl.: Yes
Encoder: FLAC
Bitrate: ~1000 kBit/s (44.1 kHz/16 Bit/s)
Log & Cue incl.: Yes
Size: 295,45 MB
Password: “slam” (without ” “)


All Downloads/Hosters are compatible

Download 1
Turbobit.net
KatFile.com
Rapidgator.net
Usersdrive.com
Download 2
Turbobit.net
KatFile.com
Rapidgator.net
Usersdrive.com

Tracklist:

1 - Thrill Me - 2:59
2 - I Need Your Love The Way It Used To Be - 2:26
3 - Everything But You - 3:23
4 - Ride The Rough Escalator - 3:27
5 - You Can't Say That - 2:19
6 - Enough - 2:42
7 - Touch - 1:53
8 - Girl Like You - 3:53
9 - The Cruellest Thing - 2:18
10 - Oh Please - 2:45
11 - Winter Sun - 3:45
12 - Joyland - 3:05
13 - Shut Down - 3:24

EAC-Log, CUE-Sheed & NFO:

Click to open spoiler
Exact Audio Copy V1.0 beta 3 from 29. August 2011

EAC extraction logfile from 5. February 2015, 17:43

The Undertones / Get What You Need

Used drive : ATAPI iHAS124 B Adapter: 1 ID: 1

Read mode : Secure
Utilize accurate stream : Yes
Defeat audio cache : Yes
Make use of C2 pointers : No

Read offset correction : 6
Overread into Lead-In and Lead-Out : No
Fill up missing offset samples with silence : Yes
Delete leading and trailing silent blocks : No
Null samples used in CRC calculations : Yes
Used interface : Installed external ASPI interface

Used output format : User Defined Encoder
Selected bitrate : 1024 kBit/s
Quality : High
Add ID3 tag : No
Command line compressor : C:\Program Files\FLAC\flac.exe
Additional command line options : -V -8 -T “Date=%year%” -T “Genre=%genre%” %source%

TOC of the extracted CD

Track | Start | Length | Start sector | End sector
———————————————————
1 | 0:00.00 | 3:00.53 | 0 | 13552
2 | 3:00.53 | 2:26.07 | 13553 | 24509
3 | 5:26.60 | 3:23.08 | 24510 | 39742
4 | 8:49.68 | 3:27.67 | 39743 | 55334
5 | 12:17.60 | 2:19.19 | 55335 | 65778
6 | 14:37.04 | 2:42.14 | 65779 | 77942
7 | 17:19.18 | 1:53.40 | 77943 | 86457
8 | 19:12.58 | 3:53.06 | 86458 | 103938
9 | 23:05.64 | 2:18.02 | 103939 | 114290
10 | 25:23.66 | 2:45.37 | 114291 | 126702
11 | 28:09.28 | 3:45.37 | 126703 | 143614
12 | 31:54.65 | 3:05.21 | 143615 | 157510
13 | 35:00.11 | 3:24.28 | 157511 | 172838
14 | 40:56.39 | 19:11.30 | 184239 | 270593

Range status and errors

Selected range

Filename D:\The Undertones – Get What You Need (2003)\The Undertones – Get What You Need.wav

Peak level 99.7 %
Extraction speed 7.7 X
Range quality 100.0 %
Test CRC 625E6FCD
Copy CRC 625E6FCD
Copy OK

No errors occurred

AccurateRip summary

Track 1 accurately ripped (confidence 2) [C30B1037] (AR v2)
Track 2 accurately ripped (confidence 2) [B0CAC82B] (AR v2)
Track 3 accurately ripped (confidence 2) [964AEF7B] (AR v2)
Track 4 accurately ripped (confidence 2) [F1372A57] (AR v2)
Track 5 accurately ripped (confidence 2) [7F3226C8] (AR v2)
Track 6 accurately ripped (confidence 2) [1E197494] (AR v2)
Track 7 accurately ripped (confidence 2) [732BAC16] (AR v2)
Track 8 accurately ripped (confidence 2) [6DA51875] (AR v2)
Track 9 accurately ripped (confidence 2) [51E67C13] (AR v2)
Track 10 accurately ripped (confidence 2) [30530262] (AR v2)
Track 11 accurately ripped (confidence 2) [EDDFB3B7] (AR v2)
Track 12 accurately ripped (confidence 2) [BBD154D0] (AR v2)
Track 13 accurately ripped (confidence 2) [2F8B9FA3] (AR v2)

All tracks accurately ripped

End of status report

==== Log checksum 0C038803F7015C22C058FD26DD676B04E49DDDA0EA43A9B35EE03D7F70BF1AE2 ====

REM GENRE “Punk Rock”
REM DATE 2003
REM DISCID B90E170E
REM COMMENT “ExactAudioCopy v1.0b3”
PERFORMER “The Undertones”
TITLE “Get What You Need”
FILE “The Undertones – Get What You Need.flac” WAVE
TRACK 01 AUDIO
TITLE “Thrill Me [w John O’Neill rg][Paul McLoone v]”
PERFORMER “The Undertones”
INDEX 01 00:00:00
TRACK 02 AUDIO
TITLE “I Need Your Love The Way It Used To Be [JO’N]”
PERFORMER “The Undertones”
INDEX 01 03:00:53
TRACK 03 AUDIO
TITLE “Everything But You [w Michael Bradley b,v]”
PERFORMER “The Undertones”
INDEX 00 05:25:58
INDEX 01 05:26:60
TRACK 04 AUDIO
TITLE “Ride The Rough Escalator [TU]”
PERFORMER “The Undertones”
INDEX 00 08:48:66
INDEX 01 08:49:68
TRACK 05 AUDIO
TITLE “You Can’t Say That [JO’N][”
PERFORMER “The Undertones”
INDEX 00 12:16:58
INDEX 01 12:17:60
TRACK 06 AUDIO
TITLE “Enough [MB][Damian O’Neill lg,k,v]”
PERFORMER “The Undertones”
INDEX 01 14:37:04
TRACK 07 AUDIO
TITLE “Touch [JO’N][Billy Doherty d]”
PERFORMER “The Undertones”
INDEX 01 17:19:18
TRACK 08 AUDIO
TITLE “Girl Like You [JO’N/MB]”
PERFORMER “The Undertones”
INDEX 00 19:10:55
INDEX 01 19:12:58
TRACK 09 AUDIO
TITLE “The Cruellest Thing [JO’N]”
PERFORMER “The Undertones”
INDEX 01 23:05:64
TRACK 10 AUDIO
TITLE “Oh Please [MB]”
PERFORMER “The Undertones”
INDEX 00 25:22:64
INDEX 01 25:23:66
TRACK 11 AUDIO
TITLE “Winter Sun [JO’N][+LITTLE HOOKS-MMcGill+RO’Doherty- bv]”
PERFORMER “The Undertones”
INDEX 00 28:08:26
INDEX 01 28:09:28
TRACK 12 AUDIO
TITLE “Joyland [MB]”
PERFORMER “The Undertones”
INDEX 01 31:54:65
TRACK 13 AUDIO
TITLE “Shut Down [JO’N][Rory O’Doherty all pro,in Derry]”
PERFORMER “The Undertones”
INDEX 01 35:00:11


Leave a Reply

Your email address will not be published. Required fields are marked *

This site uses Akismet to reduce spam. Learn how your comment data is processed.