The Undertones – Dig Yourself Deep




Artist: The Undertones
Year: 2007
Genre: Punk
Notes: Discogs
Add. Notes:
Cover incl.: Yes
Encoder: FLAC
Bitrate: ~1000 kBit/s (44.1 kHz/16 Bit/s)
Log & Cue incl.: Yes
Size: 233,11 MB
Password: “slam” (without ” “)


All Downloads/Hosters are compatible

Download 1
Turbobit.net
KatFile.com
Rapidgator.net
Usersdrive.com
Download 2
Turbobit.net
KatFile.com
Rapidgator.net
Usersdrive.com

Tracklist:

1. Dig Yourself Deep
2. So Close
3. Here Comes The Rain
4. Everything You Say Is Right
5. Him Not Me
6. We All Talked About You
7. Fight My Corner
8. Precious Little Wonder
9. Tomorrow's Tears
10. Easy Way Out 
11. Happy Valley 
12. Move Right In 
13. She's So Sweet
14. I'm Recommending Me

EAC-Log, CUE-Sheed & NFO:

Click to open spoiler
Exact Audio Copy V1.0 beta 2 from 29. April 2011

EAC extraction logfile from 6. November 2011, 11:50

The Undertones / Dig Yourself Deep

Used drive : _NEC DVD_RW ND-3550A Adapter: 1 ID: 0

Read mode : Secure
Utilize accurate stream : Yes
Defeat audio cache : Yes
Make use of C2 pointers : No

Read offset correction : 48
Overread into Lead-In and Lead-Out : No
Fill up missing offset samples with silence : Yes
Delete leading and trailing silent blocks : No
Null samples used in CRC calculations : Yes
Used interface : Native Win32 interface for Win NT & 2000

Used output format : User Defined Encoder
Selected bitrate : 768 kBit/s
Quality : High
Add ID3 tag : No
Command line compressor : C:\Program Files\Exact Audio Copy\FLAC\FLAC.EXE
Additional command line options : -6 -V -T “ARTIST=%artist%” -T “TITLE=%title%” -T “ALBUM=%albumtitle%” -T “DATE=%year%” -T “TRACKNUMBER=%tracknr%” -T “GENRE=%genre%” -T “COMMENT=%comment%” -T “BAND=%albuminterpret%” -T “COMPOSER=%composer%” %haslyrics%–ta

TOC of the extracted CD

Track | Start | Length | Start sector | End sector
———————————————————
1 | 0:00.00 | 1:51.61 | 0 | 8385
2 | 1:51.61 | 1:38.72 | 8386 | 15807
3 | 3:30.58 | 2:05.25 | 15808 | 25207
4 | 5:36.08 | 2:03.47 | 25208 | 34479
5 | 7:39.55 | 2:04.35 | 34480 | 43814
6 | 9:44.15 | 2:18.09 | 43815 | 54173
7 | 12:02.24 | 2:57.19 | 54174 | 67467
8 | 14:59.43 | 2:01.22 | 67468 | 76564
9 | 17:00.65 | 2:36.43 | 76565 | 88307
10 | 19:37.33 | 2:14.10 | 88308 | 98367
11 | 21:51.43 | 2:35.63 | 98368 | 110055
12 | 24:27.31 | 1:43.59 | 110056 | 117839
13 | 26:11.15 | 2:20.10 | 117840 | 128349
14 | 28:31.25 | 2:24.34 | 128350 | 139183

Range status and errors

Selected range

Filename C:\FINISH\The Undertones – Dig Yourself Deep (2007)\The Undertones – Dig Yourself Deep.wav

Peak level 99.3 %
Extraction speed 4.2 X
Range quality 100.0 %
Test CRC 8221A4A5
Copy CRC 8221A4A5
Copy OK

No errors occurred

AccurateRip summary

Track 1 accurately ripped (confidence 2) [AFCA16AF] (AR v1)
Track 2 accurately ripped (confidence 2) [1E3EDA1D] (AR v1)
Track 3 accurately ripped (confidence 2) [EABB99A7] (AR v1)
Track 4 accurately ripped (confidence 2) [08AFC3E5] (AR v1)
Track 5 accurately ripped (confidence 2) [A9607D3C] (AR v1)
Track 6 accurately ripped (confidence 2) [5D817BCD] (AR v1)
Track 7 accurately ripped (confidence 2) [621C362D] (AR v1)
Track 8 accurately ripped (confidence 2) [F07F00B3] (AR v1)
Track 9 accurately ripped (confidence 2) [A11D12D1] (AR v1)
Track 10 accurately ripped (confidence 2) [720BF7FD] (AR v1)
Track 11 accurately ripped (confidence 2) [FF87D914] (AR v1)
Track 12 accurately ripped (confidence 2) [C33B8E16] (AR v1)
Track 13 accurately ripped (confidence 2) [C194B4E7] (AR v1)
Track 14 accurately ripped (confidence 2) [CE8AF3B9] (AR v1)

All tracks accurately ripped

End of status report

==== Log checksum CB3DB24F7142FB32839B9A23309289603CD7712DE356707B0BA4216827FECD53 ====

REM GENRE “Punk Rock”
REM DATE 2007
REM DISCID 9E073F0E
REM COMMENT “ExactAudioCopy v1.0b2”
PERFORMER “The Undertones ”
TITLE “Dig Yourself Deep”
FILE “The Undertones – Dig Yourself Deep.flac” WAVE
TRACK 01 AUDIO
TITLE “Dig Yourself Deep”
PERFORMER “The Undertones ”
INDEX 01 00:00:00
TRACK 02 AUDIO
TITLE “So Close”
PERFORMER “The Undertones ”
INDEX 01 01:51:61
TRACK 03 AUDIO
TITLE “Here Comes the Rain”
PERFORMER “The Undertones ”
INDEX 01 03:30:58
TRACK 04 AUDIO
TITLE “Everything You Say Is Right”
PERFORMER “The Undertones ”
INDEX 01 05:36:08
TRACK 05 AUDIO
TITLE “Him Not Me”
PERFORMER “The Undertones ”
INDEX 00 07:38:74
INDEX 01 07:39:55
TRACK 06 AUDIO
TITLE “We All Talked About You”
PERFORMER “The Undertones ”
INDEX 00 09:43:54
INDEX 01 09:44:15
TRACK 07 AUDIO
TITLE “Fight My Corner”
PERFORMER “The Undertones ”
INDEX 01 12:02:24
TRACK 08 AUDIO
TITLE “Precious Little Wonder”
PERFORMER “The Undertones ”
INDEX 01 14:59:43
TRACK 09 AUDIO
TITLE “Tomorrow’s Tears”
PERFORMER “The Undertones ”
INDEX 01 17:00:65
TRACK 10 AUDIO
TITLE “Easy Way Out”
PERFORMER “The Undertones ”
INDEX 00 19:37:08
INDEX 01 19:37:33
TRACK 11 AUDIO
TITLE “Happy Valley”
PERFORMER “The Undertones ”
INDEX 01 21:51:43
TRACK 12 AUDIO
TITLE “Move Right In”
PERFORMER “The Undertones ”
INDEX 00 24:26:34
INDEX 01 24:27:31
TRACK 13 AUDIO
TITLE “She’s So Sweet”
PERFORMER “The Undertones ”
INDEX 00 26:10:70
INDEX 01 26:11:15
TRACK 14 AUDIO
TITLE “I’m Recommending Me”
PERFORMER “The Undertones ”
INDEX 00 28:31:12
INDEX 01 28:31:25


Leave a Reply

Your email address will not be published. Required fields are marked *

Enter the text from the image below
 

This site uses Akismet to reduce spam. Learn how your comment data is processed.