The Toy Dolls – One More Megabyte




Artist: The Toy Dolls
Year: 1997
Genre: Punk
Notes: Discogs
Add. Notes:
Cover incl.: Yes
Encoder: APE
Bitrate: ~1000 kBit/s (44.1 kHz/16 Bit/s)
Log & Cue incl.: Yes
Size: 266,09 MB
Password: “slam” (without ” “)


All Downloads/Hosters are compatible

Download 1
Turbobit.net
Rapidgator.net
KatFile.com
UploadRar.com
Download 2
Turbobit.net
Rapidgator.net
KatFile.com
UploadRar.com

Tracklist:

1 - Mega Intro - 0:56
2 - One More Megabyte - 2:36
3 - I'm A Lonely Bastard - 2:33
4 - Sh 's A Leech - 2:37
5 - Me 'n' John Williams - 4:12
6 - She'll Be Back With Keith Someday - 3:03
7 - I'm Gonna Be 500 Miles - 2:59
8 - Bachelor Boy / When Garry Married Melanie - 3:40
9 - Fred Oliver - 2:30
10 - In Tommy's Head - 2:22
11 - Bored Housewife - 2:11
12 - The Memory Of Nobby - 3:56
13 - The Devil Went Down To Scunthorpe - 3:24
14 - Mega Outro - 1:20

EAC-Log, CUE-Sheed & NFO:

Click to open spoiler
Exact Audio Copy V0.99 prebeta 3 from 28. July 2007

Отчёт EAC об извлечении, выполненном 2. февраля 2009, 13:21

The Toy Dolls / One More Megabyte

Дисковод: TSSTcorpCDDVDW SH-S223Q Adapter: 1 ID: 0

Режим чтения : Достоверность
Использование точного потока : Да
Отключение кэша аудио : Да
Использование указателей C2 : Нет

Коррекция смещения при чтении : 6
Способность читать области Lead-in и Lead-out : Нет
Заполнение пропущенных сэмплов тишиной : Да
Удаление блоков с тишиной в начале и конце : Нет
При вычислениях CRC использовались нулевые сэмплы : Нет
Интерфейс : Установленный внешний ASPI-интерфейс

Выходной формат : Внутренние WAV-операции
Формат сэмплов : 44.100 Гц; 16 бит; стерео

TOC извлечённого CD

Трек | Старт | Длительность | Начальный сектор | Конечный сектор
———————————————————————
1 | 0:00.00 | 0:56.02 | 0 | 4201
2 | 0:56.02 | 2:36.30 | 4202 | 15931
3 | 3:32.32 | 2:33.30 | 15932 | 27436
4 | 6:05.62 | 2:36.43 | 27437 | 39179
5 | 8:42.30 | 4:12.27 | 39180 | 58106
6 | 12:54.57 | 3:03.10 | 58107 | 71841
7 | 15:57.67 | 2:58.63 | 71842 | 85254
8 | 18:56.55 | 3:39.40 | 85255 | 101719
9 | 22:36.20 | 2:30.52 | 101720 | 113021
10 | 25:06.72 | 2:21.58 | 113022 | 123654
11 | 27:28.55 | 2:11.17 | 123655 | 133496
12 | 29:39.72 | 3:55.18 | 133497 | 151139
13 | 33:35.15 | 3:24.37 | 151140 | 166476
14 | 36:59.52 | 1:20.08 | 166477 | 172484

Характеристики диапазона извлечения и сообщения об ошибках

Выбранный диапазон

Имя файла C:\Documents and Settings\Admin\Рабочий стол\The Toy Dolls – One More Megabyte.wav

Пиковый уровень 98.0 %
Качество диапазона 100.0 %
CRC копии E8C7235A
Копирование… OK

Ошибок не произошло

AccurateRip: сводка

Трек 1 точное извлечение (доверие 3) [F797FC81]
Трек 2 точное извлечение (доверие 2) [B921CEA2]
Трек 3 точное извлечение (доверие 3) [34425AA4]
Трек 4 точное извлечение (доверие 3) [3B7CD13C]
Трек 5 точное извлечение (доверие 2) [B43A1B1C]
Трек 6 точное извлечение (доверие 3) [AA4A685A]
Трек 7 точное извлечение (доверие 3) [5311BF9C]
Трек 8 точное извлечение (доверие 3) [D4AAC99F]
Трек 9 точное извлечение (доверие 2) [7824FC9A]
Трек 10 точное извлечение (доверие 2) [0372DC22]
Трек 11 точное извлечение (доверие 2) [5C7EF4A2]
Трек 12 точное извлечение (доверие 2) [356E36B4]
Трек 13 точное извлечение (доверие 2) [852F14AF]
Трек 14 точное извлечение (доверие 3) [C3D759B9]

Все треки извлечены точно

Конец отчёта

REM GENRE “Punk Rock”
REM DATE 1997
REM DISCID B608FB0E
REM COMMENT “ExactAudioCopy v0.99pb3”
PERFORMER “The Toy Dolls”
TITLE “One More Megabyte”
FILE “The Toy Dolls – One More Megabyte.ape” WAVE
TRACK 01 AUDIO
TITLE “Mega Intro”
PERFORMER “The Toy Dolls”
INDEX 01 00:00:00
TRACK 02 AUDIO
TITLE “One More Megabyte”
PERFORMER “The Toy Dolls”
INDEX 00 00:55:73
INDEX 01 00:56:02
TRACK 03 AUDIO
TITLE “I’m A Lonely Bastard”
PERFORMER “The Toy Dolls”
INDEX 01 03:32:32
TRACK 04 AUDIO
TITLE “She’s A Leech”
PERFORMER “The Toy Dolls”
INDEX 00 06:05:54
INDEX 01 06:05:62
TRACK 05 AUDIO
TITLE “Me ‘n’ John Williams ”
PERFORMER “The Toy Dolls”
INDEX 00 08:42:28
INDEX 01 08:42:30
TRACK 06 AUDIO
TITLE “She’ll Be Back With Keith Someday”
PERFORMER “The Toy Dolls”
INDEX 01 12:54:57
TRACK 07 AUDIO
TITLE “I’m Gonna Be 500 Miles”
PERFORMER “The Toy Dolls”
INDEX 01 15:57:67
TRACK 08 AUDIO
TITLE “Bachelor Boy/When Garry Married Melanie”
PERFORMER “The Toy Dolls”
INDEX 00 18:56:00
INDEX 01 18:56:55
TRACK 09 AUDIO
TITLE “Fred Olivier”
PERFORMER “The Toy Dolls”
INDEX 00 22:36:11
INDEX 01 22:36:20
TRACK 10 AUDIO
TITLE “In Tommy’s Head”
PERFORMER “The Toy Dolls”
INDEX 01 25:06:72
TRACK 11 AUDIO
TITLE “Bored Housewife”
PERFORMER “The Toy Dolls”
INDEX 01 27:28:55
TRACK 12 AUDIO
TITLE “The Memory Of Nobby”
PERFORMER “The Toy Dolls”
INDEX 01 29:39:72
TRACK 13 AUDIO
TITLE “The Devil Went Down To Scunthorpe”
PERFORMER “The Toy Dolls”
INDEX 01 33:35:15
TRACK 14 AUDIO
TITLE “Mega Outro”
PERFORMER “The Toy Dolls”
INDEX 01 36:59:52


Leave a Reply

Your email address will not be published. Required fields are marked *

This site uses Akismet to reduce spam. Learn how your comment data is processed.