The Toy Dolls – Absurd-Ditties




No Cover available

Artist: The Toy Dolls
Year: 1993
Genre: Oi
Notes: Discogs
Add. Notes:
Watch Songs on: YouTube
Cover incl.: Yes
Encoder: FLAC
Bitrate: ~900 kBit/s (44.1 kHz/16 Bit/s)
Log & Cue incl.: Yes
Size: 239,1 MB
Password: “slam” (without ” “)


All Downloads/Hosters are compatible

Download 1
KatFile.com
Turbobit.net
Rapidgator.net
FileFactory.com
Download 2
KatFile.com
Turbobit.net
Rapidgator.net
FileFactory.com

Tracklist:

1 - Absurd-ditties - 0:44
2 - I'm A Telly Addict! - 2:48
3 - "Terry Talking" - 2:35
4 - Ernie Had A Hernia - 3:17
5 - Toccata In Dm - 2:37
6 - My Wife's A Psychopath! - 2:52
7 - Sod The Neighbours - 2:27
8 - Melancholy Margaret - 2:24
9 - Drooling Banjos - 3:53
10 - Alecs Gone - 2:59
11 - When You're Jimmy Saville - 3:08
12 - Caught Up The Reeperbahn! - 3:19
13 - Dez The Demon Decorator - 2:57
14 - Absurd-ditties - 0:47

EAC-Log, CUE-Sheed & NFO:

Click to open spoiler
Exact Audio Copy V0.99 prebeta 4 from 23. January 2008

Отчёт EAC об извлечении, выполненном 14. октября 2008, 23:29

Toy Dolls / Absurd-Ditties

Дисковод: Optiarc DVD RW AD-7200A Adapter: 0 ID: 0

Режим чтения : Достоверность
Использование точного потока : Да
Отключение кэша аудио : Да
Использование указателей C2 : Нет

Коррекция смещения при чтении : 48
Способность читать области Lead-in и Lead-out : Нет
Заполнение пропущенных сэмплов тишиной : Да
Удаление блоков с тишиной в начале и конце : Нет
При вычислениях CRC использовались нулевые сэмплы : Да
Интерфейс : Встроенный Win32-интерфейс для Win NT/2000

Выходной формат : Пользовательский кодировщик
Выбранный битрейт : 768 kBit/s
Качество : Высокий
Добавление ID3-тэга : Нет
Утилита сжатия : C:\Program Files\Exact Audio Copy\FLAC\FLAC.EXE
Дополнительные параметры : -6 -V -T “ARTIST=%a” -T “TITLE=%t” -T “ALBUM=%g” -T “DATE=%y” -T “TRACKNUMBER=%n” -T “GENRE=%m” -T “COMMENT=%e” %s -o %d

TOC извлечённого CD

Трек | Старт | Длительность | Начальный сектор | Конечный сектор
———————————————————————
1 | 0:00.00 | 0:45.45 | 0 | 3419
2 | 0:45.45 | 2:48.25 | 3420 | 16044
3 | 3:33.70 | 2:35.11 | 16045 | 27680
4 | 6:09.06 | 3:17.47 | 27681 | 42502
5 | 9:26.53 | 2:37.30 | 42503 | 54307
6 | 12:04.08 | 2:52.55 | 54308 | 67262
7 | 14:56.63 | 2:25.20 | 67263 | 78157
8 | 17:22.08 | 2:27.00 | 78158 | 89182
9 | 19:49.08 | 3:53.62 | 89183 | 106719
10 | 23:42.70 | 2:58.59 | 106720 | 120128
11 | 26:41.54 | 3:08.04 | 120129 | 134232
12 | 29:49.58 | 3:19.52 | 134233 | 149209
13 | 33:09.35 | 2:58.36 | 149210 | 162595
14 | 36:07.71 | 0:46.62 | 162596 | 166107

Характеристики диапазона извлечения и сообщения об ошибках

Выбранный диапазон

Имя файла D:\Мои документы\BitTorrent Downloads\Toy Dolls – Absurd-Ditties.wav

Пиковый уровень 94.5 %
Качество диапазона 100.0 %
CRC теста D47CC304
CRC копии D47CC304
Копирование… OK

Ошибок не произошло

AccurateRip: сводка

Трек 1 нет в базе данных
Трек 2 нет в базе данных
Трек 3 нет в базе данных
Трек 4 нет в базе данных
Трек 5 нет в базе данных
Трек 6 нет в базе данных
Трек 7 нет в базе данных
Трек 8 нет в базе данных
Трек 9 нет в базе данных
Трек 10 нет в базе данных
Трек 11 нет в базе данных
Трек 12 нет в базе данных
Трек 13 нет в базе данных
Трек 14 нет в базе данных

Ни одного трека нет в базе AccurateRip

Конец отчёта

REM DATE 1993
REM DISCID BD08A60E
REM COMMENT “ExactAudioCopy v0.99pb4”
PERFORMER “Toy Dolls”
TITLE “Absurd-Ditties”
FILE “Toy Dolls – Absurd-Ditties.flac” WAVE
TRACK 01 AUDIO
TITLE “Absurd-Ditties”
PERFORMER “Toy Dolls”
INDEX 01 00:00:00
TRACK 02 AUDIO
TITLE “I’m A Telly Adict”
PERFORMER “Toy Dolls”
INDEX 00 00:45:42
INDEX 01 00:45:45
TRACK 03 AUDIO
TITLE “Terry Talking”
PERFORMER “Toy Dolls”
INDEX 00 03:33:60
INDEX 01 03:33:70
TRACK 04 AUDIO
TITLE “Ernie Had A Hernia”
PERFORMER “Toy Dolls”
INDEX 00 06:08:71
INDEX 01 06:09:06
TRACK 05 AUDIO
TITLE “Toccata In D-Moll”
PERFORMER “Toy Dolls”
INDEX 01 09:26:53
TRACK 06 AUDIO
TITLE “My Wife’s A Pychopath”
PERFORMER “Toy Dolls”
INDEX 00 12:04:05
INDEX 01 12:04:08
TRACK 07 AUDIO
TITLE “Sod The Neighbours”
PERFORMER “Toy Dolls”
INDEX 00 14:56:59
INDEX 01 14:56:63
TRACK 08 AUDIO
TITLE “Melancholy Margaret”
PERFORMER “Toy Dolls”
INDEX 00 17:22:04
INDEX 01 17:22:08
TRACK 09 AUDIO
TITLE “Drooling Banjos”
PERFORMER “Toy Dolls”
INDEX 00 19:49:01
INDEX 01 19:49:08
TRACK 10 AUDIO
TITLE “Alec’s Gone”
PERFORMER “Toy Dolls”
INDEX 00 23:42:60
INDEX 01 23:42:70
TRACK 11 AUDIO
TITLE “When You’re Jimmy Saville”
PERFORMER “Toy Dolls”
INDEX 01 26:41:54
TRACK 12 AUDIO
TITLE “Caught Up The Reeperbahn!”
PERFORMER “Toy Dolls”
INDEX 00 29:49:57
INDEX 01 29:49:58
TRACK 13 AUDIO
TITLE “Dez The Demon Decorator”
PERFORMER “Toy Dolls”
INDEX 00 33:09:32
INDEX 01 33:09:35
TRACK 14 AUDIO
TITLE “Absurd-Ditties (End Bit)”
PERFORMER “Toy Dolls”
INDEX 00 36:07:70
INDEX 01 36:07:71


Leave a Reply

Your email address will not be published. Required fields are marked *

This site uses Akismet to reduce spam. Learn how your comment data is processed.